<?xml version="1.0" standalone="no"?>
<!DOCTYPE svg PUBLIC "-//W3C//DTD SVG 1.1//EN" "http://www.w3.org/Graphics/SVG/1.1/DTD/svg11.dtd" >
<svg xmlns="http://www.w3.org/2000/svg" xmlns:xlink="http://www.w3.org/1999/xlink" version="1.1">
<metadata>
Created by FontForge 20170910 at Wed May 31 04:48:29 2017
 By Jimmy Wärting
(c) 2015-2017 Apple Inc. All rights reserved.
</metadata>
<defs>
<font id="SFProText-Regular" horiz-adv-x="1800" >
  <font-face 
    font-family="SF Pro Text"
    font-weight="400"
    font-stretch="normal"
    units-per-em="2048"
    panose-1="0 0 5 0 0 0 0 0 0 0"
    ascent="1638"
    descent="-410"
    x-height="1078"
    cap-height="1443"
    bbox="-626 -573 2698 2205"
    underline-thickness="120"
    underline-position="-370"
    stemh="148"
    stemv="170"
    unicode-range="U+0020-1F189"
  />
<missing-glyph horiz-adv-x="2048" 
d="M100 -494v284h1848v-284h-1848zM100 -62v284h1848v-284h-1848zM100 370v284h1848v-284h-1848zM100 802v284h1848v-284h-1848zM100 1234v284h1848v-284h-1848zM100 1666v284h1848v-284h-1848z" />
    <glyph glyph-name="uni24B6" unicode="A&#x20dd;" 
d="M800 688h200l-95 287h-10zM710 408h-132l248 693h148l248 -693h-132l-62 186h-256zM900 78c358 0 635 287 635 642s-277 642 -635 642s-635 -287 -635 -642s277 -642 635 -642zM900 -50c-424 0 -771 347 -771 771s347 771 771 771s771 -347 771 -771s-347 -771 -771 -771
z" />
    <glyph glyph-name="uni24B7" unicode="B&#x20dd;" 
d="M663 388v693h294c129 0 211 -65 211 -171c0 -82 -50 -134 -122 -152v-5c90 -10 161 -68 161 -170c0 -123 -103 -195 -253 -195h-291zM792 984v-194h98c104 0 150 34 150 99c0 59 -41 95 -111 95h-137zM792 700v-215h111c122 0 171 34 171 104c0 69 -48 111 -136 111h-146
zM900 78c358 0 635 287 635 642s-277 642 -635 642s-635 -287 -635 -642s277 -642 635 -642zM900 -50c-424 0 -771 347 -771 771s347 771 771 771s771 -347 771 -771s-347 -771 -771 -771z" />
    <glyph glyph-name="uni24B8" unicode="C&#x20dd;" 
d="M1068 606h132c-21 -139 -138 -231 -302 -231c-194 0 -324 145 -324 359s130 360 324 360c168 0 285 -96 304 -240h-130c-11 79 -82 135 -172 135c-117 0 -194 -102 -194 -255s77 -254 194 -254c87 0 157 53 168 126zM900 78c358 0 635 287 635 642s-277 642 -635 642
s-635 -287 -635 -642s277 -642 635 -642zM900 -50c-424 0 -771 347 -771 771s347 771 771 771s771 -347 771 -771s-347 -771 -771 -771z" />
    <glyph glyph-name="uni24B9" unicode="D&#x20dd;" 
d="M656 1081h256c218 0 323 -124 323 -345s-106 -348 -323 -348h-256v693zM786 978v-487h110c140 0 205 81 205 243s-65 244 -205 244h-110zM900 78c358 0 635 287 635 642s-277 642 -635 642s-635 -287 -635 -642s277 -642 635 -642zM900 -50c-424 0 -771 347 -771 771
s347 771 771 771s771 -347 771 -771s-347 -771 -771 -771z" />
    <glyph glyph-name="uni24BA" unicode="E&#x20dd;" 
d="M1135 491v-103h-459v693h459v-103h-330v-190h311v-98h-311v-199h330zM900 78c358 0 635 287 635 642s-277 642 -635 642s-635 -287 -635 -642s277 -642 635 -642zM900 -50c-424 0 -771 347 -771 771s347 771 771 771s771 -347 771 -771s-347 -771 -771 -771z" />
    <glyph glyph-name="uni24BB" unicode="F&#x20dd;" 
d="M838 388h-131v693h454v-104h-323v-205h295v-102h-295v-282zM900 78c358 0 635 287 635 642s-277 642 -635 642s-635 -287 -635 -642s277 -642 635 -642zM900 -50c-424 0 -771 347 -771 771s347 771 771 771s771 -347 771 -771s-347 -771 -771 -771z" />
    <glyph glyph-name="uni24BC" unicode="G&#x20dd;" 
d="M1071 604v57h-160v95h284v-122c0 -151 -101 -259 -295 -259s-326 145 -326 359s132 360 326 360c162 0 282 -92 300 -230h-130c-11 72 -82 125 -168 125c-119 0 -196 -100 -196 -255c0 -154 77 -254 196 -254c110 0 169 51 169 124zM900 78c358 0 635 287 635 642
s-277 642 -635 642s-635 -287 -635 -642s277 -642 635 -642zM900 -50c-424 0 -771 347 -771 771s347 771 771 771s771 -347 771 -771s-347 -771 -771 -771z" />
    <glyph glyph-name="uni24BD" unicode="H&#x20dd;" 
d="M1191 388h-130v304h-321v-304h-130v693h130v-286h321v286h130v-693zM900 78c358 0 635 287 635 642s-277 642 -635 642s-635 -287 -635 -642s277 -642 635 -642zM900 -50c-424 0 -771 347 -771 771s347 771 771 771s771 -347 771 -771s-347 -771 -771 -771z" />
    <glyph glyph-name="uni24BE" unicode="I&#x20dd;" 
d="M966 388h-132v693h132v-693zM900 78c358 0 635 287 635 642s-277 642 -635 642s-635 -287 -635 -642s277 -642 635 -642zM900 -50c-424 0 -771 347 -771 771s347 771 771 771s771 -347 771 -771s-347 -771 -771 -771z" />
    <glyph glyph-name="uni24BF" unicode="J&#x20dd;" 
d="M636 576h126c1 -54 41 -91 100 -91c71 0 107 42 107 115v481h130v-477c0 -148 -89 -229 -236 -229c-148 0 -227 90 -227 201zM900 78c358 0 635 287 635 642s-277 642 -635 642s-635 -287 -635 -642s277 -642 635 -642zM900 -50c-424 0 -771 347 -771 771
s347 771 771 771s771 -347 771 -771s-347 -771 -771 -771z" />
    <glyph glyph-name="uni24C0" unicode="K&#x20dd;" 
d="M1215 1081l-263 -297l274 -396h-158l-212 312l-78 -84v-228h-130v693h130v-317h5l287 317h145zM900 78c358 0 635 287 635 642s-277 642 -635 642s-635 -287 -635 -642s277 -642 635 -642zM900 -50c-424 0 -771 347 -771 771s347 771 771 771s771 -347 771 -771
s-347 -771 -771 -771z" />
    <glyph glyph-name="uni24C1" unicode="L&#x20dd;" 
d="M1168 495v-107h-446v693h131v-586h315zM900 78c358 0 635 287 635 642s-277 642 -635 642s-635 -287 -635 -642s277 -642 635 -642zM900 -50c-424 0 -771 347 -771 771s347 771 771 771s771 -347 771 -771s-347 -771 -771 -771z" />
    <glyph glyph-name="uni24C2" unicode="M&#x20dd;" 
d="M668 388h-117v693h132l216 -533h4l216 533h130v-693h-117v473h-6l-180 -453h-91l-181 453h-6v-473zM900 78c358 0 635 287 635 642s-277 642 -635 642s-635 -287 -635 -642s277 -642 635 -642zM900 -50c-424 0 -771 347 -771 771s347 771 771 771s771 -347 771 -771
s-347 -771 -771 -771z" />
    <glyph glyph-name="uni24C3" unicode="N&#x20dd;" 
d="M738 388h-124v693h111l331 -482h6v482h124v-693h-111l-332 484h-5v-484zM900 78c358 0 635 287 635 642s-277 642 -635 642s-635 -287 -635 -642s277 -642 635 -642zM900 -50c-424 0 -771 347 -771 771s347 771 771 771s771 -347 771 -771s-347 -771 -771 -771z" />
    <glyph glyph-name="uni24C4" unicode="O&#x20dd;" 
d="M900 480c108 0 194 90 194 254c0 165 -86 255 -194 255s-194 -90 -194 -255c0 -164 86 -254 194 -254zM900 375c-180 0 -326 130 -326 359c0 230 146 360 326 360s326 -130 326 -360c0 -229 -146 -359 -326 -359zM900 78c358 0 635 287 635 642s-277 642 -635 642
s-635 -287 -635 -642s277 -642 635 -642zM900 -50c-424 0 -771 347 -771 771s347 771 771 771s771 -347 771 -771s-347 -771 -771 -771z" />
    <glyph glyph-name="uni24C5" unicode="P&#x20dd;" 
d="M962 1081c153 0 242 -98 242 -227c0 -130 -90 -225 -243 -225h-153v-241h-129v693h283zM1071 854c0 80 -48 126 -131 126h-132v-251h132c83 0 131 45 131 125zM900 78c358 0 635 287 635 642s-277 642 -635 642s-635 -287 -635 -642s277 -642 635 -642zM900 -50
c-424 0 -771 347 -771 771s347 771 771 771s771 -347 771 -771s-347 -771 -771 -771z" />
    <glyph glyph-name="uni24C6" unicode="Q&#x20dd;" 
d="M1200 319h-128l-56 76c-36 -13 -75 -20 -116 -20c-180 0 -326 130 -326 359c0 230 146 360 326 360s326 -130 326 -360c0 -130 -47 -227 -120 -288zM900 480c17 0 34 2 49 7l-84 115h126l44 -60c36 43 59 108 59 192c0 165 -86 255 -194 255s-194 -90 -194 -255
c0 -164 86 -254 194 -254zM900 78c358 0 635 287 635 642s-277 642 -635 642s-635 -287 -635 -642s277 -642 635 -642zM900 -50c-424 0 -771 347 -771 771s347 771 771 771s771 -347 771 -771s-347 -771 -771 -771z" />
    <glyph glyph-name="uni24C7" unicode="R&#x20dd;" 
d="M934 1081c156 0 249 -85 249 -216c0 -99 -62 -168 -133 -194l146 -283h-146l-128 263h-142v-263h-128v693h282zM780 747h132c86 0 137 39 137 114c0 78 -53 120 -133 120h-136v-234zM900 78c358 0 635 287 635 642s-277 642 -635 642s-635 -287 -635 -642
s277 -642 635 -642zM900 -50c-424 0 -771 347 -771 771s347 771 771 771s771 -347 771 -771s-347 -771 -771 -771z" />
    <glyph glyph-name="uni24C8" unicode="S&#x20dd;" 
d="M620 582h127c6 -64 68 -107 158 -107c89 0 146 40 146 103c0 48 -34 76 -115 96l-117 26c-117 27 -180 92 -180 189c0 123 108 206 266 206c155 0 263 -82 265 -203h-124c-5 63 -61 104 -142 104c-80 0 -134 -41 -134 -100c0 -42 35 -73 100 -87l117 -26
c132 -31 193 -91 193 -194c0 -132 -109 -214 -283 -214c-166 0 -274 80 -277 207zM900 78c358 0 635 287 635 642s-277 642 -635 642s-635 -287 -635 -642s277 -642 635 -642zM900 -50c-424 0 -771 347 -771 771s347 771 771 771s771 -347 771 -771s-347 -771 -771 -771z
" />
    <glyph glyph-name="uni24C9" unicode="T&#x20dd;" 
d="M966 368h-132v588h-210v105h552v-105h-210v-588zM900 78c358 0 635 287 635 642s-277 642 -635 642s-635 -287 -635 -642s277 -642 635 -642zM900 -50c-424 0 -771 347 -771 771s347 771 771 771s771 -347 771 -771s-347 -771 -771 -771z" />
    <glyph glyph-name="uni24CA" unicode="U&#x20dd;" 
d="M900 462c95 0 158 56 158 156v443h130v-454c0 -151 -113 -252 -288 -252s-288 101 -288 252v454h130v-443c0 -100 63 -156 158 -156zM900 78c358 0 635 287 635 642s-277 642 -635 642s-635 -287 -635 -642s277 -642 635 -642zM900 -50c-424 0 -771 347 -771 771
s347 771 771 771s771 -347 771 -771s-347 -771 -771 -771z" />
    <glyph glyph-name="uni24CB" unicode="V&#x20dd;" 
d="M822 368l-250 693h151l174 -555h6l174 555h151l-250 -693h-156zM900 78c358 0 635 287 635 642s-277 642 -635 642s-635 -287 -635 -642s277 -642 635 -642zM900 -50c-424 0 -771 347 -771 771s347 771 771 771s771 -347 771 -771s-347 -771 -771 -771z" />
    <glyph glyph-name="uni24CC" unicode="W&#x20dd;" 
d="M898 869l-140 -501h-119l-195 693h143l117 -518h6l133 518h114l133 -518h6l117 518h143l-195 -693h-119l-140 501h-4zM900 78c358 0 635 287 635 642s-277 642 -635 642s-635 -287 -635 -642s277 -642 635 -642zM900 -50c-424 0 -771 347 -771 771s347 771 771 771
s771 -347 771 -771s-347 -771 -771 -771z" />
    <glyph glyph-name="uni24CD" unicode="X&#x20dd;" 
d="M1214 1081l-233 -348l230 -345h-152l-161 253h-6l-163 -253h-143l229 349l-227 344h155l159 -256h6l158 256h148zM900 78c358 0 635 287 635 642s-277 642 -635 642s-635 -287 -635 -642s277 -642 635 -642zM900 -50c-424 0 -771 347 -771 771s347 771 771 771
s771 -347 771 -771s-347 -771 -771 -771z" />
    <glyph glyph-name="uni24CE" unicode="Y&#x20dd;" 
d="M966 383h-131v273l-243 420h145l162 -297h5l162 297h142l-242 -418v-275zM900 78c358 0 635 287 635 642s-277 642 -635 642s-635 -287 -635 -642s277 -642 635 -642zM900 -50c-424 0 -771 347 -771 771s347 771 771 771s771 -347 771 -771s-347 -771 -771 -771z" />
    <glyph glyph-name="uni24CF" unicode="Z&#x20dd;" 
d="M635 388v83l361 499v7h-350v104h509v-83l-360 -499v-7h370v-104h-530zM900 78c358 0 635 287 635 642s-277 642 -635 642s-635 -287 -635 -642s277 -642 635 -642zM900 -50c-424 0 -771 347 -771 771s347 771 771 771s771 -347 771 -771s-347 -771 -771 -771z" />
    <glyph glyph-name="uni24EA" unicode="&#x23;&#x20dd;" 
d="M900 486c88 0 144 90 144 249s-56 249 -144 249s-144 -90 -144 -249s56 -249 144 -249zM900 376c-156 0 -268 130 -268 359s112 359 268 359s268 -130 268 -359s-112 -359 -268 -359zM900 78c358 0 635 287 635 642s-277 642 -635 642s-635 -287 -635 -642
s277 -642 635 -642zM900 -50c-424 0 -771 347 -771 771s347 771 771 771s771 -347 771 -771s-347 -771 -771 -771z" />
    <glyph glyph-name="uni2460" unicode="&#x31;&#x20dd;" 
d="M999 388h-130v571h-6l-166 -114v117l172 119h130v-693zM900 78c358 0 635 287 635 642s-277 642 -635 642s-635 -287 -635 -642s277 -642 635 -642zM900 -50c-424 0 -771 347 -771 771s347 771 771 771s771 -347 771 -771s-347 -771 -771 -771z" />
    <glyph glyph-name="uni2461" unicode="&#x32;&#x20dd;" 
d="M782 878h-124v6c0 105 79 210 243 210c146 0 241 -83 241 -193c0 -92 -61 -152 -126 -219l-174 -185v-6h313v-103h-492v77l268 280c40 41 82 86 82 145c0 61 -49 103 -114 103c-75 0 -117 -51 -117 -109v-6zM900 78c358 0 635 287 635 642s-277 642 -635 642
s-635 -287 -635 -642s277 -642 635 -642zM900 -50c-424 0 -771 347 -771 771s347 771 771 771s771 -347 771 -771s-347 -771 -771 -771z" />
    <glyph glyph-name="uni2462" unicode="&#x33;&#x20dd;" 
d="M820 696v98h77c68 0 118 44 118 103c-1 58 -50 99 -118 99c-70 0 -116 -43 -119 -89h-122c3 103 89 186 244 187c147 0 241 -76 244 -179c2 -98 -82 -152 -135 -161v-6c65 -7 155 -55 157 -167c2 -128 -120 -206 -270 -206c-159 0 -251 85 -255 188h120
c5 -51 60 -89 136 -90c84 0 140 48 140 113c-2 64 -55 110 -136 110h-81zM900 78c358 0 635 287 635 642s-277 642 -635 642s-635 -287 -635 -642s277 -642 635 -642zM900 -50c-424 0 -771 347 -771 771s347 771 771 771s771 -347 771 -771s-347 -771 -771 -771z" />
    <glyph glyph-name="uni2463" unicode="&#x34;&#x20dd;" 
d="M875 1081h189v-458h91v-102h-91v-133h-123v133h-352v103c87 153 189 305 286 457zM710 623h231v361h-6c-77 -113 -157 -237 -225 -357v-4zM900 78c358 0 635 287 635 642s-277 642 -635 642s-635 -287 -635 -642s277 -642 635 -642zM900 -50c-424 0 -771 347 -771 771
s347 771 771 771s771 -347 771 -771s-347 -771 -771 -771z" />
    <glyph glyph-name="uni2464" unicode="&#x35;&#x20dd;" 
d="M652 562h121c12 -60 72 -87 135 -87c70 0 138 51 138 141c0 80 -64 131 -139 131c-68 0 -110 -38 -126 -68h-114l32 402h434v-102h-329l-17 -195h6c15 22 65 60 147 60c126 0 233 -82 233 -225c0 -146 -109 -244 -270 -244c-146 0 -245 81 -251 187zM900 78
c358 0 635 287 635 642s-277 642 -635 642s-635 -287 -635 -642s277 -642 635 -642zM900 -50c-424 0 -771 347 -771 771s347 771 771 771s771 -347 771 -771s-347 -771 -771 -771z" />
    <glyph glyph-name="uni2465" unicode="&#x36;&#x20dd;" 
d="M1158 616c0 -142 -105 -241 -258 -241c-154 0 -260 100 -260 248c0 83 30 161 98 256c9 15 133 185 148 201h149c-15 -16 -174 -223 -191 -247c-9 -12 -18 -26 -24 -37l8 -2c26 27 72 44 119 44c122 0 211 -94 211 -222zM765 612c0 -76 57 -134 134 -134s134 58 134 134
s-57 134 -134 134s-134 -58 -134 -134zM900 78c358 0 635 287 635 642s-277 642 -635 642s-635 -287 -635 -642s277 -642 635 -642zM900 -50c-424 0 -771 347 -771 771s347 771 771 771s771 -347 771 -771s-347 -771 -771 -771z" />
    <glyph glyph-name="uni2466" unicode="&#x37;&#x20dd;" 
d="M672 1071h491v-105l-296 -588h-137l301 584v6h-359v103zM900 78c358 0 635 287 635 642s-277 642 -635 642s-635 -287 -635 -642s277 -642 635 -642zM900 -50c-424 0 -771 347 -771 771s347 771 771 771s771 -347 771 -771s-347 -771 -771 -771z" />
    <glyph glyph-name="uni2467" unicode="&#x38;&#x20dd;" 
d="M900 467c84 0 145 50 145 119c0 70 -60 119 -145 119s-146 -51 -146 -119c0 -69 61 -119 146 -119zM900 793c71 0 121 44 121 105s-50 103 -121 103s-121 -42 -121 -103s50 -105 121 -105zM898 375c-163 0 -273 81 -273 203c0 86 61 155 151 173v5
c-76 24 -122 81 -122 155c0 107 102 183 246 183s246 -76 246 -183c0 -73 -47 -133 -122 -155v-5c90 -18 151 -87 151 -172c0 -122 -113 -204 -277 -204zM900 78c358 0 635 287 635 642s-277 642 -635 642s-635 -287 -635 -642s277 -642 635 -642zM900 -50
c-424 0 -771 347 -771 771s347 771 771 771s771 -347 771 -771s-347 -771 -771 -771z" />
    <glyph glyph-name="uni2468" unicode="&#x39;&#x20dd;" 
d="M641 853c0 142 105 241 258 241c154 0 260 -100 260 -248c0 -83 -30 -161 -98 -256c-9 -15 -133 -185 -148 -201h-149c15 16 174 223 191 247c9 12 18 26 24 37l-8 2c-26 -27 -72 -44 -119 -44c-122 0 -211 94 -211 222zM1034 857c0 76 -57 134 -134 134
s-134 -58 -134 -134s57 -134 134 -134s134 58 134 134zM900 78c358 0 635 287 635 642s-277 642 -635 642s-635 -287 -635 -642s277 -642 635 -642zM900 -50c-424 0 -771 347 -771 771s347 771 771 771s771 -347 771 -771s-347 -771 -771 -771z" />
    <glyph glyph-name="plus.uc.whitecircle" unicode="&#x2b;&#x20dd;" 
d="M954 682v-217h-108v217h-212v102h212v209h108v-209h212v-102h-212zM900 78c358 0 635 287 635 642s-277 642 -635 642s-635 -287 -635 -642s277 -642 635 -642zM900 -50c-424 0 -771 347 -771 771s347 771 771 771s771 -347 771 -771s-347 -771 -771 -771z" />
    <glyph glyph-name="minus.uc.whitecircle" unicode="&#x2212;&#x20dd;" 
d="M1155 677h-510v104h510v-104zM900 78c358 0 635 287 635 642s-277 642 -635 642s-635 -287 -635 -642s277 -642 635 -642zM900 -50c-424 0 -771 347 -771 771s347 771 771 771s771 -347 771 -771s-347 -771 -771 -771z" />
    <glyph glyph-name="multiply.uc.whitecircle" unicode="&#xd7;&#x20dd;" 
d="M900 802l163 156l77 -73l-163 -156l163 -156l-77 -73l-163 156l-163 -156l-77 73l163 156l-163 156l77 73zM900 78c358 0 635 287 635 642s-277 642 -635 642s-635 -287 -635 -642s277 -642 635 -642zM900 -50c-424 0 -771 347 -771 771s347 771 771 771
s771 -347 771 -771s-347 -771 -771 -771z" />
    <glyph glyph-name="divide.uc.whitecircle" unicode="&#xf7;&#x20dd;" 
d="M1155 683h-510v91h510v-91zM821 934c0 45 34 76 78 76c47 0 82 -31 82 -76c0 -42 -36 -73 -82 -73c-44 0 -78 31 -78 73zM821 527c0 45 34 76 79 76c46 0 81 -31 81 -76c0 -42 -35 -73 -81 -73c-45 0 -79 31 -79 73zM900 78c358 0 635 287 635 642s-277 642 -635 642
s-635 -287 -635 -642s277 -642 635 -642zM900 -50c-424 0 -771 347 -771 771s347 771 771 771s771 -347 771 -771s-347 -771 -771 -771z" />
    <glyph glyph-name="equal.uc.whitecircle" unicode="&#x3d;&#x20dd;" 
d="M1141 567h-482v95h482v-95zM1141 795h-482v96h482v-96zM900 78c358 0 635 287 635 642s-277 642 -635 642s-635 -287 -635 -642s277 -642 635 -642zM900 -50c-424 0 -771 347 -771 771s347 771 771 771s771 -347 771 -771s-347 -771 -771 -771z" />
    <glyph glyph-name="greater.uc.whitecircle" unicode="&#x3e;&#x20dd;" 
d="M1166 764v-84l-482 -246v122l337 167v5l-337 173v124zM900 78c358 0 635 287 635 642s-277 642 -635 642s-635 -287 -635 -642s277 -642 635 -642zM900 -50c-424 0 -771 347 -771 771s347 771 771 771s771 -347 771 -771s-347 -771 -771 -771z" />
    <glyph glyph-name="less.uc.whitecircle" unicode="&#x3c;&#x20dd;" 
d="M635 680v84l481 261v-124l-338 -173v-5l338 -167v-122zM900 78c358 0 635 287 635 642s-277 642 -635 642s-635 -287 -635 -642s277 -642 635 -642zM900 -50c-424 0 -771 347 -771 771s347 771 771 771s771 -347 771 -771s-347 -771 -771 -771z" />
    <glyph glyph-name="numbersign.whitecircle" unicode="&#x30;&#x20dd;" 
d="M1187 802h-112l-30 -139h107l-19 -90h-107l-40 -190h-98l41 190h-131l-40 -190h-98l40 190h-105l18 90h106l30 139h-101l18 90h103l38 184h97l-38 -184h130l39 184h97l-38 -184h111zM842 806l-33 -153h144l33 153h-144zM900 78c358 0 635 287 635 642s-277 642 -635 642
s-635 -287 -635 -642s277 -642 635 -642zM900 -50c-424 0 -771 347 -771 771s347 771 771 771s771 -347 771 -771s-347 -771 -771 -771z" />
    <glyph glyph-name="uni25BC.whitecircle" unicode="&#x25bc;&#x20dd;" 
d="M1214 945l-314 -543l-313 543h627zM900 78c358 0 635 287 635 642s-277 642 -635 642s-635 -287 -635 -642s277 -642 635 -642zM900 -50c-424 0 -771 347 -771 771s347 771 771 771s771 -347 771 -771s-347 -771 -771 -771z" />
    <glyph glyph-name="uni25B2.whitecircle" unicode="&#x25b2;&#x20dd;" 
d="M1214 513h-627l313 543zM900 78c358 0 635 287 635 642s-277 642 -635 642s-635 -287 -635 -642s277 -642 635 -642zM900 -50c-424 0 -771 347 -771 771s347 771 771 771s771 -347 771 -771s-347 -771 -771 -771z" />
    <glyph glyph-name="uni25C0.whitecircle" unicode="&#x25c0;&#x20dd;" 
d="M1116 415l-543 314l543 313v-627zM900 78c358 0 635 287 635 642s-277 642 -635 642s-635 -287 -635 -642s277 -642 635 -642zM900 -50c-424 0 -771 347 -771 771s347 771 771 771s771 -347 771 -771s-347 -771 -771 -771z" />
    <glyph glyph-name="uni25B6.whitecircle" unicode="&#x25b6;&#x20dd;" 
d="M684 415v627l543 -313zM900 78c358 0 635 287 635 642s-277 642 -635 642s-635 -287 -635 -642s277 -642 635 -642zM900 -50c-424 0 -771 347 -771 771s347 771 771 771s771 -347 771 -771s-347 -771 -771 -771z" />
    <glyph glyph-name="question.whitecircle" unicode="&#x3f;&#x20dd;" 
d="M798 454c0 46 37 77 88 77c54 0 90 -31 90 -77c0 -43 -36 -75 -90 -75c-51 0 -88 32 -88 75zM824 606v33c-4 76 38 122 96 162c50 35 82 57 82 107c0 63 -51 90 -106 90c-72 0 -109 -47 -109 -106h-119c-3 150 120 203 234 203c121 0 229 -59 229 -181
c0 -87 -54 -127 -105 -163c-62 -45 -86 -61 -86 -118v-27h-116zM900 78c358 0 635 287 635 642s-277 642 -635 642s-635 -287 -635 -642s277 -642 635 -642zM900 -50c-424 0 -771 347 -771 771s347 771 771 771s771 -347 771 -771s-347 -771 -771 -771z" />
    <glyph glyph-name="exclam.whitecircle" unicode="&#x21;&#x20dd;" 
d="M811 454c0 46 36 78 89 78s89 -32 89 -78c0 -43 -36 -75 -89 -75s-89 32 -89 75zM830 1081h141l-15 -454h-111zM900 78c358 0 635 287 635 642s-277 642 -635 642s-635 -287 -635 -642s277 -642 635 -642zM900 -50c-424 0 -771 347 -771 771s347 771 771 771
s771 -347 771 -771s-347 -771 -771 -771z" />
    <glyph glyph-name="uni2717.whitecircle" unicode="&#x2717;&#x20dd;" 
d="M904 806l259 258l82 -81l-258 -259l258 -259l-82 -83l-259 258l-259 -258l-83 83l258 259l-259 260l82 82zM900 78c358 0 635 287 635 642s-277 642 -635 642s-635 -287 -635 -642s277 -642 635 -642zM900 -50c-424 0 -771 347 -771 771s347 771 771 771
s771 -347 771 -771s-347 -771 -771 -771z" />
    <glyph glyph-name="uni2713.whitecircle" unicode="&#x2713;&#x20dd;" 
d="M1323 950l-546 -544l-288 285l88 87l199 -198l459 458zM900 78c358 0 635 287 635 642s-277 642 -635 642s-635 -287 -635 -642s277 -642 635 -642zM900 -50c-424 0 -771 347 -771 771s347 771 771 771s771 -347 771 -771s-347 -771 -771 -771z" />
    <glyph glyph-name="uni1F130" unicode="A&#x20de;" 
d="M800 668h200l-95 287h-10zM710 388h-132l248 693h148l248 -693h-132l-62 186h-256zM416 1464h968c143 0 258 -114 258 -254v-976c0 -140 -115 -254 -258 -254h-968c-142 0 -258 114 -258 254v976c0 140 116 254 258 254zM1513 1208c0 75 -65 138 -143 138h-940
c-77 0 -143 -62 -143 -138v-972c0 -75 66 -138 143 -138h940c78 0 143 63 143 138v972z" />
    <glyph glyph-name="uni1F131" unicode="B&#x20de;" 
d="M663 388v693h294c129 0 211 -65 211 -171c0 -82 -50 -134 -122 -152v-5c90 -10 161 -68 161 -170c0 -123 -103 -195 -253 -195h-291zM792 984v-194h98c104 0 150 34 150 99c0 59 -41 95 -111 95h-137zM792 700v-215h111c122 0 171 34 171 104c0 69 -48 111 -136 111h-146
zM416 1464h968c143 0 258 -114 258 -254v-976c0 -140 -115 -254 -258 -254h-968c-142 0 -258 114 -258 254v976c0 140 116 254 258 254zM1513 1208c0 75 -65 138 -143 138h-940c-77 0 -143 -62 -143 -138v-972c0 -75 66 -138 143 -138h940c78 0 143 63 143 138v972z" />
    <glyph glyph-name="uni1F132" unicode="C&#x20de;" 
d="M1068 606h132c-21 -139 -138 -231 -302 -231c-194 0 -324 145 -324 359s130 360 324 360c168 0 285 -96 304 -240h-130c-11 79 -82 135 -172 135c-117 0 -194 -102 -194 -255s77 -254 194 -254c87 0 157 53 168 126zM416 1464h968c143 0 258 -114 258 -254v-976
c0 -140 -115 -254 -258 -254h-968c-142 0 -258 114 -258 254v976c0 140 116 254 258 254zM1513 1208c0 75 -65 138 -143 138h-940c-77 0 -143 -62 -143 -138v-972c0 -75 66 -138 143 -138h940c78 0 143 63 143 138v972z" />
    <glyph glyph-name="uni1F133" unicode="D&#x20de;" 
d="M633 1081h256c218 0 323 -124 323 -345s-106 -348 -323 -348h-256v693zM763 978v-487h110c140 0 205 81 205 243s-65 244 -205 244h-110zM416 1464h968c143 0 258 -114 258 -254v-976c0 -140 -115 -254 -258 -254h-968c-142 0 -258 114 -258 254v976
c0 140 116 254 258 254zM1513 1208c0 75 -65 138 -143 138h-940c-77 0 -143 -62 -143 -138v-972c0 -75 66 -138 143 -138h940c78 0 143 63 143 138v972z" />
    <glyph glyph-name="uni1F134" unicode="E&#x20de;" 
d="M1135 491v-103h-459v693h459v-103h-330v-190h311v-98h-311v-199h330zM416 1464h968c143 0 258 -114 258 -254v-976c0 -140 -115 -254 -258 -254h-968c-142 0 -258 114 -258 254v976c0 140 116 254 258 254zM1513 1208c0 75 -65 138 -143 138h-940
c-77 0 -143 -62 -143 -138v-972c0 -75 66 -138 143 -138h940c78 0 143 63 143 138v972z" />
    <glyph glyph-name="uni1F135" unicode="F&#x20de;" 
d="M838 388h-131v693h454v-104h-323v-205h295v-102h-295v-282zM416 1464h968c143 0 258 -114 258 -254v-976c0 -140 -115 -254 -258 -254h-968c-142 0 -258 114 -258 254v976c0 140 116 254 258 254zM1513 1208c0 75 -65 138 -143 138h-940c-77 0 -143 -62 -143 -138v-972
c0 -75 66 -138 143 -138h940c78 0 143 63 143 138v972z" />
    <glyph glyph-name="uni1F136" unicode="G&#x20de;" 
d="M1071 604v57h-160v95h284v-122c0 -151 -101 -259 -295 -259s-326 145 -326 359s132 360 326 360c162 0 282 -92 300 -230h-130c-11 72 -82 125 -168 125c-119 0 -196 -100 -196 -255c0 -154 77 -254 196 -254c110 0 169 51 169 124zM416 1464h968
c143 0 258 -114 258 -254v-976c0 -140 -115 -254 -258 -254h-968c-142 0 -258 114 -258 254v976c0 140 116 254 258 254zM1513 1208c0 75 -65 138 -143 138h-940c-77 0 -143 -62 -143 -138v-972c0 -75 66 -138 143 -138h940c78 0 143 63 143 138v972z" />
    <glyph glyph-name="uni1F137" unicode="H&#x20de;" 
d="M1191 388h-130v304h-321v-304h-130v693h130v-286h321v286h130v-693zM416 1464h968c143 0 258 -114 258 -254v-976c0 -140 -115 -254 -258 -254h-968c-142 0 -258 114 -258 254v976c0 140 116 254 258 254zM1513 1208c0 75 -65 138 -143 138h-940
c-77 0 -143 -62 -143 -138v-972c0 -75 66 -138 143 -138h940c78 0 143 63 143 138v972z" />
    <glyph glyph-name="uni1F138" unicode="I&#x20de;" 
d="M966 388h-132v693h132v-693zM416 1464h968c143 0 258 -114 258 -254v-976c0 -140 -115 -254 -258 -254h-968c-142 0 -258 114 -258 254v976c0 140 116 254 258 254zM1513 1208c0 75 -65 138 -143 138h-940c-77 0 -143 -62 -143 -138v-972c0 -75 66 -138 143 -138h940
c78 0 143 63 143 138v972z" />
    <glyph glyph-name="uni1F139" unicode="J&#x20de;" 
d="M636 576h126c1 -54 41 -91 100 -91c71 0 107 42 107 115v481h130v-477c0 -148 -89 -229 -236 -229c-148 0 -227 90 -227 201zM416 1464h968c143 0 258 -114 258 -254v-976c0 -140 -115 -254 -258 -254h-968c-142 0 -258 114 -258 254v976c0 140 116 254 258 254z
M1513 1208c0 75 -65 138 -143 138h-940c-77 0 -143 -62 -143 -138v-972c0 -75 66 -138 143 -138h940c78 0 143 63 143 138v972z" />
    <glyph glyph-name="uni1F13A" unicode="K&#x20de;" 
d="M1215 1081l-263 -297l274 -396h-158l-212 312l-78 -84v-228h-130v693h130v-317h5l287 317h145zM416 1464h968c143 0 258 -114 258 -254v-976c0 -140 -115 -254 -258 -254h-968c-142 0 -258 114 -258 254v976c0 140 116 254 258 254zM1513 1208c0 75 -65 138 -143 138
h-940c-77 0 -143 -62 -143 -138v-972c0 -75 66 -138 143 -138h940c78 0 143 63 143 138v972z" />
    <glyph glyph-name="uni1F13B" unicode="L&#x20de;" 
d="M1178 495v-107h-446v693h131v-586h315zM416 1464h968c143 0 258 -114 258 -254v-976c0 -140 -115 -254 -258 -254h-968c-142 0 -258 114 -258 254v976c0 140 116 254 258 254zM1513 1208c0 75 -65 138 -143 138h-940c-77 0 -143 -62 -143 -138v-972
c0 -75 66 -138 143 -138h940c78 0 143 63 143 138v972z" />
    <glyph glyph-name="uni1F13C" unicode="M&#x20de;" 
d="M668 388h-117v693h132l216 -533h4l216 533h130v-693h-117v473h-6l-180 -453h-91l-181 453h-6v-473zM416 1464h968c143 0 258 -114 258 -254v-976c0 -140 -115 -254 -258 -254h-968c-142 0 -258 114 -258 254v976c0 140 116 254 258 254zM1513 1208c0 75 -65 138 -143 138
h-940c-77 0 -143 -62 -143 -138v-972c0 -75 66 -138 143 -138h940c78 0 143 63 143 138v972z" />
    <glyph glyph-name="uni1F13D" unicode="N&#x20de;" 
d="M738 388h-124v693h111l331 -482h6v482h124v-693h-111l-332 484h-5v-484zM416 1464h968c143 0 258 -114 258 -254v-976c0 -140 -115 -254 -258 -254h-968c-142 0 -258 114 -258 254v976c0 140 116 254 258 254zM1513 1208c0 75 -65 138 -143 138h-940
c-77 0 -143 -62 -143 -138v-972c0 -75 66 -138 143 -138h940c78 0 143 63 143 138v972z" />
    <glyph glyph-name="uni1F13E" unicode="O&#x20de;" 
d="M900 480c108 0 194 90 194 254c0 165 -86 255 -194 255s-194 -90 -194 -255c0 -164 86 -254 194 -254zM900 375c-180 0 -326 130 -326 359c0 230 146 360 326 360s326 -130 326 -360c0 -229 -146 -359 -326 -359zM416 1464h968c143 0 258 -114 258 -254v-976
c0 -140 -115 -254 -258 -254h-968c-142 0 -258 114 -258 254v976c0 140 116 254 258 254zM1513 1208c0 75 -65 138 -143 138h-940c-77 0 -143 -62 -143 -138v-972c0 -75 66 -138 143 -138h940c78 0 143 63 143 138v972z" />
    <glyph glyph-name="uni1F13F" unicode="P&#x20de;" 
d="M962 1081c153 0 242 -98 242 -227c0 -130 -90 -225 -243 -225h-153v-241h-129v693h283zM1071 854c0 80 -48 126 -131 126h-132v-251h132c83 0 131 45 131 125zM416 1464h968c143 0 258 -114 258 -254v-976c0 -140 -115 -254 -258 -254h-968c-142 0 -258 114 -258 254v976
c0 140 116 254 258 254zM1513 1208c0 75 -65 138 -143 138h-940c-77 0 -143 -62 -143 -138v-972c0 -75 66 -138 143 -138h940c78 0 143 63 143 138v972z" />
    <glyph glyph-name="uni1F140" unicode="Q&#x20de;" 
d="M1200 319h-128l-56 76c-36 -13 -75 -20 -116 -20c-180 0 -326 130 -326 359c0 230 146 360 326 360s326 -130 326 -360c0 -130 -47 -227 -120 -288zM900 480c17 0 34 2 49 7l-84 115h126l44 -60c36 43 59 108 59 192c0 165 -86 255 -194 255s-194 -90 -194 -255
c0 -164 86 -254 194 -254zM416 1464h968c143 0 258 -114 258 -254v-976c0 -140 -115 -254 -258 -254h-968c-142 0 -258 114 -258 254v976c0 140 116 254 258 254zM1513 1208c0 75 -65 138 -143 138h-940c-77 0 -143 -62 -143 -138v-972c0 -75 66 -138 143 -138h940
c78 0 143 63 143 138v972z" />
    <glyph glyph-name="uni1F141" unicode="R&#x20de;" 
d="M934 1081c156 0 249 -85 249 -216c0 -99 -62 -168 -133 -194l146 -283h-146l-128 263h-142v-263h-128v693h282zM780 747h132c86 0 137 39 137 114c0 78 -53 120 -133 120h-136v-234zM416 1464h968c143 0 258 -114 258 -254v-976c0 -140 -115 -254 -258 -254h-968
c-142 0 -258 114 -258 254v976c0 140 116 254 258 254zM1513 1208c0 75 -65 138 -143 138h-940c-77 0 -143 -62 -143 -138v-972c0 -75 66 -138 143 -138h940c78 0 143 63 143 138v972z" />
    <glyph glyph-name="uni1F142" unicode="S&#x20de;" 
d="M620 582h127c6 -64 68 -107 158 -107c89 0 146 40 146 103c0 48 -34 76 -115 96l-117 26c-117 27 -180 92 -180 189c0 123 108 206 266 206c155 0 263 -82 265 -203h-124c-5 63 -61 104 -142 104c-80 0 -134 -41 -134 -100c0 -42 35 -73 100 -87l117 -26
c132 -31 193 -91 193 -194c0 -132 -109 -214 -283 -214c-166 0 -274 80 -277 207zM416 1464h968c143 0 258 -114 258 -254v-976c0 -140 -115 -254 -258 -254h-968c-142 0 -258 114 -258 254v976c0 140 116 254 258 254zM1513 1208c0 75 -65 138 -143 138h-940
c-77 0 -143 -62 -143 -138v-972c0 -75 66 -138 143 -138h940c78 0 143 63 143 138v972z" />
    <glyph glyph-name="uni1F143" unicode="T&#x20de;" 
d="M966 388h-132v588h-210v105h552v-105h-210v-588zM416 1464h968c143 0 258 -114 258 -254v-976c0 -140 -115 -254 -258 -254h-968c-142 0 -258 114 -258 254v976c0 140 116 254 258 254zM1513 1208c0 75 -65 138 -143 138h-940c-77 0 -143 -62 -143 -138v-972
c0 -75 66 -138 143 -138h940c78 0 143 63 143 138v972z" />
    <glyph glyph-name="uni1F144" unicode="U&#x20de;" 
d="M900 482c95 0 158 56 158 156v443h130v-454c0 -151 -113 -252 -288 -252s-288 101 -288 252v454h130v-443c0 -100 63 -156 158 -156zM416 1464h968c143 0 258 -114 258 -254v-976c0 -140 -115 -254 -258 -254h-968c-142 0 -258 114 -258 254v976c0 140 116 254 258 254z
M1513 1208c0 75 -65 138 -143 138h-940c-77 0 -143 -62 -143 -138v-972c0 -75 66 -138 143 -138h940c78 0 143 63 143 138v972z" />
    <glyph glyph-name="uni1F145" unicode="V&#x20de;" 
d="M822 388l-250 693h151l174 -555h6l174 555h151l-250 -693h-156zM416 1464h968c143 0 258 -114 258 -254v-976c0 -140 -115 -254 -258 -254h-968c-142 0 -258 114 -258 254v976c0 140 116 254 258 254zM1513 1208c0 75 -65 138 -143 138h-940c-77 0 -143 -62 -143 -138
v-972c0 -75 66 -138 143 -138h940c78 0 143 63 143 138v972z" />
    <glyph glyph-name="uni1F146" unicode="W&#x20de;" 
d="M898 889l-140 -501h-119l-195 693h143l117 -518h6l133 518h114l133 -518h6l117 518h143l-195 -693h-119l-140 501h-4zM416 1464h968c143 0 258 -114 258 -254v-976c0 -140 -115 -254 -258 -254h-968c-142 0 -258 114 -258 254v976c0 140 116 254 258 254zM1513 1208
c0 75 -65 138 -143 138h-940c-77 0 -143 -62 -143 -138v-972c0 -75 66 -138 143 -138h940c78 0 143 63 143 138v972z" />
    <glyph glyph-name="uni1F147" unicode="X&#x20de;" 
d="M1214 1081l-233 -348l230 -345h-152l-161 253h-6l-163 -253h-143l229 349l-227 344h155l159 -256h6l158 256h148zM416 1464h968c143 0 258 -114 258 -254v-976c0 -140 -115 -254 -258 -254h-968c-142 0 -258 114 -258 254v976c0 140 116 254 258 254zM1513 1208
c0 75 -65 138 -143 138h-940c-77 0 -143 -62 -143 -138v-972c0 -75 66 -138 143 -138h940c78 0 143 63 143 138v972z" />
    <glyph glyph-name="uni1F148" unicode="Y&#x20de;" 
d="M966 388h-131v273l-243 420h145l162 -297h5l162 297h142l-242 -418v-275zM416 1464h968c143 0 258 -114 258 -254v-976c0 -140 -115 -254 -258 -254h-968c-142 0 -258 114 -258 254v976c0 140 116 254 258 254zM1513 1208c0 75 -65 138 -143 138h-940
c-77 0 -143 -62 -143 -138v-972c0 -75 66 -138 143 -138h940c78 0 143 63 143 138v972z" />
    <glyph glyph-name="uni1F149" unicode="Z&#x20de;" 
d="M635 388v83l361 499v7h-350v104h509v-83l-360 -499v-7h370v-104h-530zM416 1464h968c143 0 258 -114 258 -254v-976c0 -140 -115 -254 -258 -254h-968c-142 0 -258 114 -258 254v976c0 140 116 254 258 254zM1513 1208c0 75 -65 138 -143 138h-940
c-77 0 -143 -62 -143 -138v-972c0 -75 66 -138 143 -138h940c78 0 143 63 143 138v972z" />
    <glyph glyph-name="zero.whitesquare" unicode="&#x30;&#x20de;" 
d="M900 486c88 0 144 90 144 249s-56 249 -144 249s-144 -90 -144 -249s56 -249 144 -249zM900 376c-156 0 -268 130 -268 359s112 359 268 359s268 -130 268 -359s-112 -359 -268 -359zM416 1464h968c143 0 258 -114 258 -254v-976c0 -140 -115 -254 -258 -254h-968
c-142 0 -258 114 -258 254v976c0 140 116 254 258 254zM1513 1208c0 75 -65 138 -143 138h-940c-77 0 -143 -62 -143 -138v-972c0 -75 66 -138 143 -138h940c78 0 143 63 143 138v972z" />
    <glyph glyph-name="one.whitesquare" unicode="&#x31;&#x20de;" 
d="M1009 388h-130v571h-6l-166 -114v117l172 119h130v-693zM416 1464h968c143 0 258 -114 258 -254v-976c0 -140 -115 -254 -258 -254h-968c-142 0 -258 114 -258 254v976c0 140 116 254 258 254zM1513 1208c0 75 -65 138 -143 138h-940c-77 0 -143 -62 -143 -138v-972
c0 -75 66 -138 143 -138h940c78 0 143 63 143 138v972z" />
    <glyph glyph-name="two.whitesquare" unicode="&#x32;&#x20de;" 
d="M782 878h-124v6c0 105 79 210 243 210c146 0 241 -83 241 -193c0 -92 -61 -152 -126 -219l-174 -185v-6h313v-103h-492v77l268 280c40 41 82 86 82 145c0 61 -49 103 -114 103c-75 0 -117 -51 -117 -109v-6zM416 1464h968c143 0 258 -114 258 -254v-976
c0 -140 -115 -254 -258 -254h-968c-142 0 -258 114 -258 254v976c0 140 116 254 258 254zM1513 1208c0 75 -65 138 -143 138h-940c-77 0 -143 -62 -143 -138v-972c0 -75 66 -138 143 -138h940c78 0 143 63 143 138v972z" />
    <glyph glyph-name="three.whitesquare" unicode="&#x33;&#x20de;" 
d="M820 696v98h77c68 0 118 44 118 103c-1 58 -50 99 -118 99c-70 0 -116 -43 -119 -89h-122c3 103 89 186 244 187c147 0 241 -76 244 -179c2 -98 -82 -152 -135 -161v-6c65 -7 155 -55 157 -167c2 -128 -120 -206 -270 -206c-159 0 -251 85 -255 188h120
c5 -51 60 -89 136 -90c84 0 140 48 140 113c-2 64 -55 110 -136 110h-81zM416 1464h968c143 0 258 -114 258 -254v-976c0 -140 -115 -254 -258 -254h-968c-142 0 -258 114 -258 254v976c0 140 116 254 258 254zM1513 1208c0 75 -65 138 -143 138h-940
c-77 0 -143 -62 -143 -138v-972c0 -75 66 -138 143 -138h940c78 0 143 63 143 138v972z" />
    <glyph glyph-name="four.whitesquare" unicode="&#x34;&#x20de;" 
d="M895 1081h189v-458h91v-102h-91v-133h-123v133h-352v103c87 153 189 305 286 457zM730 623h231v361h-6c-77 -113 -157 -237 -225 -357v-4zM416 1464h968c143 0 258 -114 258 -254v-976c0 -140 -115 -254 -258 -254h-968c-142 0 -258 114 -258 254v976
c0 140 116 254 258 254zM1513 1208c0 75 -65 138 -143 138h-940c-77 0 -143 -62 -143 -138v-972c0 -75 66 -138 143 -138h940c78 0 143 63 143 138v972z" />
    <glyph glyph-name="five.whitesquare" unicode="&#x35;&#x20de;" 
d="M652 562h121c12 -60 72 -87 135 -87c70 0 138 51 138 141c0 80 -64 131 -139 131c-68 0 -110 -38 -126 -68h-114l32 402h434v-102h-329l-17 -195h6c15 22 65 60 147 60c126 0 233 -82 233 -225c0 -146 -109 -244 -270 -244c-146 0 -245 81 -251 187zM416 1464h968
c143 0 258 -114 258 -254v-976c0 -140 -115 -254 -258 -254h-968c-142 0 -258 114 -258 254v976c0 140 116 254 258 254zM1513 1208c0 75 -65 138 -143 138h-940c-77 0 -143 -62 -143 -138v-972c0 -75 66 -138 143 -138h940c78 0 143 63 143 138v972z" />
    <glyph glyph-name="six.whitesquare" unicode="&#x36;&#x20de;" 
d="M1158 616c0 -142 -105 -241 -258 -241c-154 0 -260 100 -260 248c0 83 30 161 98 256c9 15 133 185 148 201h149c-15 -16 -174 -223 -191 -247c-9 -12 -18 -26 -24 -37l8 -2c26 27 72 44 119 44c122 0 211 -94 211 -222zM765 612c0 -76 57 -134 134 -134s134 58 134 134
s-57 134 -134 134s-134 -58 -134 -134zM416 1464h968c143 0 258 -114 258 -254v-976c0 -140 -115 -254 -258 -254h-968c-142 0 -258 114 -258 254v976c0 140 116 254 258 254zM1513 1208c0 75 -65 138 -143 138h-940c-77 0 -143 -62 -143 -138v-972c0 -75 66 -138 143 -138
h940c78 0 143 63 143 138v972z" />
    <glyph glyph-name="seven.whitesquare" unicode="&#x37;&#x20de;" 
d="M662 1081h491v-105l-296 -588h-137l301 584v6h-359v103zM416 1464h968c143 0 258 -114 258 -254v-976c0 -140 -115 -254 -258 -254h-968c-142 0 -258 114 -258 254v976c0 140 116 254 258 254zM1513 1208c0 75 -65 138 -143 138h-940c-77 0 -143 -62 -143 -138v-972
c0 -75 66 -138 143 -138h940c78 0 143 63 143 138v972z" />
    <glyph glyph-name="eight.whitesquare" unicode="&#x38;&#x20de;" 
d="M900 467c84 0 145 50 145 119c0 70 -60 119 -145 119s-146 -51 -146 -119c0 -69 61 -119 146 -119zM900 793c71 0 121 44 121 105s-50 103 -121 103s-121 -42 -121 -103s50 -105 121 -105zM898 375c-163 0 -273 81 -273 203c0 86 61 155 151 173v5
c-76 24 -122 81 -122 155c0 107 102 183 246 183s246 -76 246 -183c0 -73 -47 -133 -122 -155v-5c90 -18 151 -87 151 -172c0 -122 -113 -204 -277 -204zM416 1464h968c143 0 258 -114 258 -254v-976c0 -140 -115 -254 -258 -254h-968c-142 0 -258 114 -258 254v976
c0 140 116 254 258 254zM1513 1208c0 75 -65 138 -143 138h-940c-77 0 -143 -62 -143 -138v-972c0 -75 66 -138 143 -138h940c78 0 143 63 143 138v972z" />
    <glyph glyph-name="nine.whitesquare" unicode="&#x39;&#x20de;" 
d="M641 853c0 142 105 241 258 241c154 0 260 -100 260 -248c0 -83 -30 -161 -98 -256c-9 -15 -133 -185 -148 -201h-149c15 16 174 223 191 247c9 12 18 26 24 37l-8 2c-26 -27 -72 -44 -119 -44c-122 0 -211 94 -211 222zM1034 857c0 76 -57 134 -134 134
s-134 -58 -134 -134s57 -134 134 -134s134 58 134 134zM416 1464h968c143 0 258 -114 258 -254v-976c0 -140 -115 -254 -258 -254h-968c-142 0 -258 114 -258 254v976c0 140 116 254 258 254zM1513 1208c0 75 -65 138 -143 138h-940c-77 0 -143 -62 -143 -138v-972
c0 -75 66 -138 143 -138h940c78 0 143 63 143 138v972z" />
    <glyph glyph-name="plus.uc.whitesquare" unicode="&#x2b;&#x20de;" 
d="M954 682v-217h-108v217h-212v102h212v209h108v-209h212v-102h-212zM416 1464h968c143 0 258 -114 258 -254v-976c0 -140 -115 -254 -258 -254h-968c-142 0 -258 114 -258 254v976c0 140 116 254 258 254zM1513 1208c0 75 -65 138 -143 138h-940c-77 0 -143 -62 -143 -138
v-972c0 -75 66 -138 143 -138h940c78 0 143 63 143 138v972z" />
    <glyph glyph-name="minus.uc.whitesquare" unicode="&#x2212;&#x20de;" 
d="M1155 677h-510v104h510v-104zM416 1464h968c143 0 258 -114 258 -254v-976c0 -140 -115 -254 -258 -254h-968c-142 0 -258 114 -258 254v976c0 140 116 254 258 254zM1513 1208c0 75 -65 138 -143 138h-940c-77 0 -143 -62 -143 -138v-972c0 -75 66 -138 143 -138h940
c78 0 143 63 143 138v972z" />
    <glyph glyph-name="multiply.uc.whitesquare" unicode="&#xd7;&#x20de;" 
d="M900 802l163 156l77 -73l-163 -156l163 -156l-77 -73l-163 156l-163 -156l-77 73l163 156l-163 156l77 73zM416 1464h968c143 0 258 -114 258 -254v-976c0 -140 -115 -254 -258 -254h-968c-142 0 -258 114 -258 254v976c0 140 116 254 258 254zM1513 1208
c0 75 -65 138 -143 138h-940c-77 0 -143 -62 -143 -138v-972c0 -75 66 -138 143 -138h940c78 0 143 63 143 138v972z" />
    <glyph glyph-name="divide.uc.whitesquare" unicode="&#xf7;&#x20de;" 
d="M1155 683h-510v91h510v-91zM821 934c0 45 34 76 78 76c47 0 82 -31 82 -76c0 -42 -36 -73 -82 -73c-44 0 -78 31 -78 73zM821 527c0 45 34 76 79 76c46 0 81 -31 81 -76c0 -42 -35 -73 -81 -73c-45 0 -79 31 -79 73zM416 1464h968c143 0 258 -114 258 -254v-976
c0 -140 -115 -254 -258 -254h-968c-142 0 -258 114 -258 254v976c0 140 116 254 258 254zM1513 1208c0 75 -65 138 -143 138h-940c-77 0 -143 -62 -143 -138v-972c0 -75 66 -138 143 -138h940c78 0 143 63 143 138v972z" />
    <glyph glyph-name="equal.uc.whitesquare" unicode="&#x3d;&#x20de;" 
d="M1141 567h-482v95h482v-95zM1141 795h-482v96h482v-96zM416 1464h968c143 0 258 -114 258 -254v-976c0 -140 -115 -254 -258 -254h-968c-142 0 -258 114 -258 254v976c0 140 116 254 258 254zM1513 1208c0 75 -65 138 -143 138h-940c-77 0 -143 -62 -143 -138v-972
c0 -75 66 -138 143 -138h940c78 0 143 63 143 138v972z" />
    <glyph glyph-name="greater.uc.whitesquare" unicode="&#x3e;&#x20de;" 
d="M1166 764v-84l-482 -246v122l337 167v5l-337 173v124zM416 1464h968c143 0 258 -114 258 -254v-976c0 -140 -115 -254 -258 -254h-968c-142 0 -258 114 -258 254v976c0 140 116 254 258 254zM1513 1208c0 75 -65 138 -143 138h-940c-77 0 -143 -62 -143 -138v-972
c0 -75 66 -138 143 -138h940c78 0 143 63 143 138v972z" />
    <glyph glyph-name="less.uc.whitesquare" unicode="&#x3c;&#x20de;" 
d="M635 680v84l481 261v-124l-338 -173v-5l338 -167v-122zM416 1464h968c143 0 258 -114 258 -254v-976c0 -140 -115 -254 -258 -254h-968c-142 0 -258 114 -258 254v976c0 140 116 254 258 254zM1513 1208c0 75 -65 138 -143 138h-940c-77 0 -143 -62 -143 -138v-972
c0 -75 66 -138 143 -138h940c78 0 143 63 143 138v972z" />
    <glyph glyph-name="numbersign.whitesquare" unicode="&#x23;&#x20de;" 
d="M1187 802h-112l-30 -139h107l-19 -90h-107l-40 -190h-98l41 190h-131l-40 -190h-98l40 190h-105l18 90h106l30 139h-101l18 90h103l38 184h97l-38 -184h130l39 184h97l-38 -184h111zM842 806l-33 -153h144l33 153h-144zM416 1464h968c143 0 258 -114 258 -254v-976
c0 -140 -115 -254 -258 -254h-968c-142 0 -258 114 -258 254v976c0 140 116 254 258 254zM1513 1208c0 75 -65 138 -143 138h-940c-77 0 -143 -62 -143 -138v-972c0 -75 66 -138 143 -138h940c78 0 143 63 143 138v972z" />
    <glyph glyph-name="uni25BC.whitesquare" unicode="&#x25bc;&#x20de;" 
d="M1215 945l-314 -543l-314 543h628zM416 1464h968c143 0 258 -114 258 -254v-976c0 -140 -115 -254 -258 -254h-968c-142 0 -258 114 -258 254v976c0 140 116 254 258 254zM1513 1208c0 75 -65 138 -143 138h-940c-77 0 -143 -62 -143 -138v-972c0 -75 66 -138 143 -138
h940c78 0 143 63 143 138v972z" />
    <glyph glyph-name="uni25B2.whitesquare" unicode="&#x25b2;&#x20de;" 
d="M1214 513h-627l313 543zM416 1464h968c143 0 258 -114 258 -254v-976c0 -140 -115 -254 -258 -254h-968c-142 0 -258 114 -258 254v976c0 140 116 254 258 254zM1513 1208c0 75 -65 138 -143 138h-940c-77 0 -143 -62 -143 -138v-972c0 -75 66 -138 143 -138h940
c78 0 143 63 143 138v972z" />
    <glyph glyph-name="uni25C0.whitesquare" unicode="&#x25c0;&#x20de;" 
d="M1116 415l-543 314l543 313v-627zM416 1464h968c143 0 258 -114 258 -254v-976c0 -140 -115 -254 -258 -254h-968c-142 0 -258 114 -258 254v976c0 140 116 254 258 254zM1513 1208c0 75 -65 138 -143 138h-940c-77 0 -143 -62 -143 -138v-972c0 -75 66 -138 143 -138
h940c78 0 143 63 143 138v972z" />
    <glyph glyph-name="uni25B6.whitesquare" unicode="&#x25b6;&#x20de;" 
d="M684 415v627l543 -313zM416 1464h968c143 0 258 -114 258 -254v-976c0 -140 -115 -254 -258 -254h-968c-142 0 -258 114 -258 254v976c0 140 116 254 258 254zM1513 1208c0 75 -65 138 -143 138h-940c-77 0 -143 -62 -143 -138v-972c0 -75 66 -138 143 -138h940
c78 0 143 63 143 138v972z" />
    <glyph glyph-name="question.whitesquare" unicode="&#x3f;&#x20de;" 
d="M798 454c0 46 37 77 88 77c54 0 90 -31 90 -77c0 -43 -36 -75 -90 -75c-51 0 -88 32 -88 75zM668 892c-3 150 120 203 234 203c121 0 229 -59 229 -181c0 -87 -54 -127 -105 -163c-62 -45 -86 -61 -86 -118v-27h-116v33c-4 76 38 122 96 162c50 35 82 57 82 107
c0 63 -51 90 -106 90c-72 0 -109 -47 -109 -106h-119zM416 1464h968c143 0 258 -114 258 -254v-976c0 -140 -115 -254 -258 -254h-968c-142 0 -258 114 -258 254v976c0 140 116 254 258 254zM1513 1208c0 75 -65 138 -143 138h-940c-77 0 -143 -62 -143 -138v-972
c0 -75 66 -138 143 -138h940c78 0 143 63 143 138v972z" />
    <glyph glyph-name="exclam.whitesquare" unicode="&#x21;&#x20de;" 
d="M811 454c0 46 36 78 89 78s89 -32 89 -78c0 -43 -36 -75 -89 -75s-89 32 -89 75zM830 1081h141l-15 -454h-111zM416 1464h968c143 0 258 -114 258 -254v-976c0 -140 -115 -254 -258 -254h-968c-142 0 -258 114 -258 254v976c0 140 116 254 258 254zM1513 1208
c0 75 -65 138 -143 138h-940c-77 0 -143 -62 -143 -138v-972c0 -75 66 -138 143 -138h940c78 0 143 63 143 138v972z" />
    <glyph glyph-name="uni2717.whitesquare" unicode="&#x2717;&#x20de;" 
d="M904 806l259 258l82 -81l-258 -259l258 -259l-82 -83l-259 258l-259 -258l-83 83l258 259l-259 260l82 82zM416 1464h968c143 0 258 -114 258 -254v-976c0 -140 -115 -254 -258 -254h-968c-142 0 -258 114 -258 254v976c0 140 116 254 258 254zM1513 1208
c0 75 -65 138 -143 138h-940c-77 0 -143 -62 -143 -138v-972c0 -75 66 -138 143 -138h940c78 0 143 63 143 138v972z" />
    <glyph glyph-name="uni2713.whitesquare" unicode="&#x2713;&#x20de;" 
d="M1323 950l-546 -544l-288 285l88 87l199 -198l459 458zM416 1464h968c143 0 258 -114 258 -254v-976c0 -140 -115 -254 -258 -254h-968c-142 0 -258 114 -258 254v976c0 140 116 254 258 254zM1513 1208c0 75 -65 138 -143 138h-940c-77 0 -143 -62 -143 -138v-972
c0 -75 66 -138 143 -138h940c78 0 143 63 143 138v972z" />
    <glyph glyph-name="uni1F150" unicode="A&#x20dd;&#x25cf;" 
d="M1001 690h-202l99 297h4zM698 374l67 202h270l67 -202h156l-273 766h-170l-273 -766h156zM900 -50c-424 0 -771 347 -771 771s347 771 771 771s771 -347 771 -771s-347 -771 -771 -771z" />
    <glyph glyph-name="uni1F151" unicode="B&#x20dd;&#x25cf;" 
d="M629 354h323c173 0 283 84 283 218c0 101 -64 173 -169 189v0c80 24 126 86 126 168c0 117 -91 191 -237 191h-326v-766zM780 1005h145c72 0 116 -38 116 -99c0 -71 -51 -104 -158 -104h-103v203zM780 694h155c91 0 143 -42 143 -117c0 -74 -56 -108 -181 -108h-117v225z
M900 -50c-424 0 -771 347 -771 771s347 771 771 771s771 -347 771 -771s-347 -771 -771 -771z" />
    <glyph glyph-name="uni1F152" unicode="C&#x20dd;&#x25cf;" 
d="M1075 593c-12 -67 -84 -122 -174 -122c-121 0 -202 104 -202 263c0 158 81 264 202 264c92 0 166 -60 178 -132h155c-20 159 -149 265 -335 265c-214 0 -357 -161 -357 -397s143 -396 357 -396c180 0 309 102 333 255h-157zM900 -50c-424 0 -771 347 -771 771
s347 771 771 771s771 -347 771 -771s-347 -771 -771 -771z" />
    <glyph glyph-name="uni1F153" unicode="D&#x20dd;&#x25cf;" 
d="M621 1120v-766h285c233 0 357 133 357 384s-123 382 -357 382h-285zM773 997h115c148 0 219 -85 219 -261s-71 -259 -219 -259h-115v520zM900 -50c-424 0 -771 347 -771 771s347 771 771 771s771 -347 771 -771s-347 -771 -771 -771z" />
    <glyph glyph-name="uni1F154" unicode="E&#x20dd;&#x25cf;" 
d="M1159 477h-361v206h339v117h-339v197h361v123h-514v-766h514v123zM900 -50c-424 0 -771 347 -771 771s347 771 771 771s771 -347 771 -771s-347 -771 -771 -771z" />
    <glyph glyph-name="uni1F155" unicode="F&#x20dd;&#x25cf;" 
d="M830 354v307h324v123h-324v212h353v124h-505v-766h152zM900 -50c-424 0 -771 347 -771 771s347 771 771 771s771 -347 771 -771s-347 -771 -771 -771z" />
    <glyph glyph-name="uni1F156" unicode="G&#x20dd;&#x25cf;" 
d="M1077 620c0 -76 -60 -142 -174 -142c-123 0 -203 96 -203 256c0 161 80 257 203 257c98 0 165 -47 173 -104h157c-21 143 -153 243 -331 243c-214 0 -361 -160 -361 -396s145 -395 359 -395c203 0 326 134 326 301v134h-312v-127h163v-27zM900 -50
c-424 0 -771 347 -771 771s347 771 771 771s771 -347 771 -771s-347 -771 -771 -771z" />
    <glyph glyph-name="uni1F157" unicode="H&#x20dd;&#x25cf;" 
d="M1222 354v766h-151v-312h-341v312h-152v-766h152v330h341v-330h151zM900 -50c-424 0 -771 347 -771 771s347 771 771 771s771 -347 771 -771s-347 -771 -771 -771z" />
    <glyph glyph-name="uni1F158" unicode="I&#x20dd;&#x25cf;" 
d="M976 354v766h-152v-766h152zM900 -50c-424 0 -771 347 -771 771s347 771 771 771s771 -347 771 -771s-347 -771 -771 -771z" />
    <glyph glyph-name="uni1F159" unicode="J&#x20dd;&#x25cf;" 
d="M606 570c0 -139 101 -230 254 -230c167 0 263 93 263 255v525h-153v-530c0 -78 -39 -119 -112 -119c-61 0 -102 40 -103 99h-149zM900 -50c-424 0 -771 347 -771 771s347 771 771 771s771 -347 771 -771s-347 -771 -771 -771z" />
    <glyph glyph-name="uni1F15A" unicode="K&#x20dd;&#x25cf;" 
d="M1248 1120h-172l-311 -343v0v343h-152v-766h152v252l79 85l230 -337h185l-304 436zM900 -50c-424 0 -771 347 -771 771s347 771 771 771s771 -347 771 -771s-347 -771 -771 -771z" />
    <glyph glyph-name="uni1F15B" unicode="L&#x20dd;&#x25cf;" 
d="M1190 481h-344v639h-153v-766h497v127zM900 -50c-424 0 -771 347 -771 771s347 771 771 771s771 -347 771 -771s-347 -771 -771 -771z" />
    <glyph glyph-name="uni1F15C" unicode="M&#x20dd;&#x25cf;" 
d="M651 354v521v0l196 -495h106l195 491v0v-517h139v766h-152l-236 -582v0l-233 582h-153v-766h138zM900 -50c-424 0 -771 347 -771 771s347 771 771 771s771 -347 771 -771s-347 -771 -771 -771z" />
    <glyph glyph-name="uni1F15D" unicode="N&#x20dd;&#x25cf;" 
d="M728 354v523v0l359 -523h131v766h-146v-524v0l-361 524h-129v-766h146zM900 -50c-424 0 -771 347 -771 771s347 771 771 771s771 -347 771 -771s-347 -771 -771 -771z" />
    <glyph glyph-name="uni1F15E" unicode="O&#x20dd;&#x25cf;" 
d="M900 465c-114 0 -206 95 -206 269c0 175 92 270 206 270s206 -95 206 -270c0 -174 -92 -269 -206 -269zM900 338c199 0 360 143 360 396c0 254 -161 397 -360 397s-360 -143 -360 -397c0 -253 161 -396 360 -396zM900 -50c-424 0 -771 347 -771 771s347 771 771 771
s771 -347 771 -771s-347 -771 -771 -771z" />
    <glyph glyph-name="uni1F15F" unicode="P&#x20dd;&#x25cf;" 
d="M960 1120h-314v-766h152v263h161c163 0 272 99 272 250s-109 253 -271 253zM1075 867c0 -83 -51 -132 -138 -132h-139v264h139c88 0 138 -49 138 -132zM900 -50c-424 0 -771 347 -771 771s347 771 771 771s771 -347 771 -771s-347 -771 -771 -771z" />
    <glyph glyph-name="uni1F160" unicode="Q&#x20dd;&#x25cf;" 
d="M1240 280l-106 142c77 67 126 173 126 312c0 254 -161 397 -360 397s-360 -143 -360 -397c0 -253 161 -396 360 -396c44 0 86 7 125 21l57 -79h158zM900 465c-114 0 -206 95 -206 269c0 175 92 270 206 270s206 -95 206 -270c0 -85 -22 -151 -58 -196l-46 62h-152
l94 -130c-14 -3 -29 -5 -44 -5zM900 -50c-424 0 -771 347 -771 771s347 771 771 771s771 -347 771 -771s-347 -771 -771 -771z" />
    <glyph glyph-name="uni1F161" unicode="R&#x20dd;&#x25cf;" 
d="M768 755v245h143c88 0 141 -47 141 -125c0 -76 -52 -120 -144 -120h-140zM931 1120h-313v-766h150v287h147l139 -287h173l-161 310c87 32 142 115 142 215c0 149 -106 241 -277 241zM900 -50c-424 0 -771 347 -771 771s347 771 771 771s771 -347 771 -771
s-347 -771 -771 -771z" />
    <glyph glyph-name="uni1F162" unicode="S&#x20dd;&#x25cf;" 
d="M589 576c4 -145 123 -237 308 -237c193 0 314 92 314 238c0 116 -68 184 -216 218l-127 28c-68 15 -105 47 -105 90c0 63 56 104 141 104s144 -45 151 -113h145c-2 138 -122 232 -295 232c-175 0 -295 -94 -295 -231c0 -108 70 -182 200 -211l127 -30
c86 -19 122 -48 122 -98c0 -66 -59 -107 -154 -107c-94 0 -161 46 -166 117h-150zM900 -50c-424 0 -771 347 -771 771s347 771 771 771s771 -347 771 -771s-347 -771 -771 -771z" />
    <glyph glyph-name="uni1F163" unicode="T&#x20dd;&#x25cf;" 
d="M976 334v641h229v125h-610v-125h229v-641h152zM900 -50c-424 0 -771 347 -771 771s347 771 771 771s771 -347 771 -771s-347 -771 -771 -771z" />
    <glyph glyph-name="uni1F164" unicode="U&#x20dd;&#x25cf;" 
d="M900 448c-105 0 -167 61 -167 164v488h-153v-500c0 -169 126 -280 320 -280c193 0 320 112 320 280v500h-153v-488c0 -103 -63 -164 -167 -164zM900 -50c-424 0 -771 347 -771 771s347 771 771 771s771 -347 771 -771s-347 -771 -771 -771z" />
    <glyph glyph-name="uni1F165" unicode="V&#x20dd;&#x25cf;" 
d="M986 334l277 766h-175l-186 -608h-4l-186 608h-175l277 -766h172zM900 -50c-424 0 -771 347 -771 771s347 771 771 771s771 -347 771 -771s-347 -771 -771 -771z" />
    <glyph glyph-name="uni1F166" unicode="W&#x20dd;&#x25cf;" 
d="M898 875h4l151 -541h139l216 766h-168l-122 -566h-4l-145 566h-138l-145 -566h-4l-122 566h-168l217 -766h138zM900 -50c-424 0 -771 347 -771 771s347 771 771 771s771 -347 771 -771s-347 -771 -771 -771z" />
    <glyph glyph-name="uni1F167" unicode="X&#x20dd;&#x25cf;" 
d="M1252 1120h-174l-168 -279h-4l-173 279h-182l250 -380l-253 -386h170l175 275h3l175 -275h177l-254 381zM900 -50c-424 0 -771 347 -771 771s347 771 771 771s771 -347 771 -771s-347 -771 -771 -771z" />
    <glyph glyph-name="uni1F168" unicode="Y&#x20dd;&#x25cf;" 
d="M824 349h152v302l271 464h-169l-176 -324h-4l-176 324h-169l271 -464v-302zM900 -50c-424 0 -771 347 -771 771s347 771 771 771s771 -347 771 -771s-347 -771 -771 -771z" />
    <glyph glyph-name="uni1F169" unicode="Z&#x20dd;&#x25cf;" 
d="M605 354h590v124h-405v0l394 545v97h-567v-124h383v-1l-395 -544v-97zM900 -50c-424 0 -771 347 -771 771s347 771 771 771s771 -347 771 -771s-347 -771 -771 -771z" />
    <glyph glyph-name="uni24FF" unicode="&#x30;&#x20dd;&#x25cf;" 
d="M896 461c-93 0 -148 97 -148 274s55 274 148 274s148 -97 148 -274s-55 -274 -148 -274zM896 338c183 0 302 150 302 397s-119 397 -302 397s-302 -150 -302 -397s119 -397 302 -397zM900 -50c-424 0 -771 347 -771 771s347 771 771 771s771 -347 771 -771
s-347 -771 -771 -771z" />
    <glyph glyph-name="uni278A" unicode="&#x31;&#x20dd;&#x25cf;" 
d="M1013 353v765h-148l-191 -132v-140l187 128h1v-621h151zM900 -50c-424 0 -771 347 -771 771s347 771 771 771s771 -347 771 -771s-347 -771 -771 -771z" />
    <glyph glyph-name="uni278B" unicode="&#x32;&#x20dd;&#x25cf;" 
d="M772 886v11c0 61 43 115 122 115c67 0 119 -45 119 -107c0 -64 -45 -112 -88 -156l-293 -306v-91h546v122h-342v0l203 212c65 70 125 133 125 230c0 123 -106 215 -268 215c-182 0 -270 -117 -270 -234v-11h146zM900 -50c-424 0 -771 347 -771 771s347 771 771 771
s771 -347 771 -771s-347 -771 -771 -771z" />
    <glyph glyph-name="uni278C" unicode="&#x33;&#x20dd;&#x25cf;" 
d="M804 688h93c85 0 140 -48 141 -115c0 -68 -57 -117 -146 -117c-79 1 -137 43 -144 98h-140c5 -118 106 -216 283 -216c166 0 302 87 300 231c-4 121 -97 177 -169 185v0c58 12 146 73 144 179c-3 115 -108 200 -270 200c-173 -1 -268 -97 -272 -215h144
c3 51 50 97 124 97c72 0 123 -42 124 -103c0 -61 -52 -106 -124 -106h-88v-118zM900 -50c-424 0 -771 347 -771 771s347 771 771 771s771 -347 771 -771s-347 -771 -771 -771z" />
    <glyph glyph-name="uni278D" unicode="&#x34;&#x20dd;&#x25cf;" 
d="M868 1118c-161 -250 -243 -377 -314 -503v-117h383v-145h145v145h100v120h-100v500h-214zM696 619c73 127 159 257 241 380v0v-381h-241v1zM900 -50c-424 0 -771 347 -771 771s347 771 771 771s771 -347 771 -771s-347 -771 -771 -771z" />
    <glyph glyph-name="uni278E" unicode="&#x35;&#x20dd;&#x25cf;" 
d="M619 552c6 -122 116 -213 279 -213c177 0 299 108 299 272c0 158 -119 249 -259 249c-85 0 -139 -37 -160 -63v0l17 201h359v120h-483l-35 -448h131c18 33 63 74 135 74c79 0 146 -53 146 -138c0 -95 -72 -148 -144 -148c-67 0 -131 31 -143 94h-142zM900 -50
c-424 0 -771 347 -771 771s347 771 771 771s771 -347 771 -771s-347 -771 -771 -771z" />
    <glyph glyph-name="uni278F" unicode="&#x36;&#x20dd;&#x25cf;" 
d="M1185 606c0 141 -98 244 -232 244c-53 0 -103 -18 -133 -47l-8 2c5 10 19 29 36 53c63 86 182 238 200 260h-164c-15 -18 -153 -205 -163 -222c-74 -105 -108 -191 -108 -282c0 -165 117 -275 287 -275c169 0 285 109 285 267zM752 601c0 84 62 148 147 148
s147 -64 147 -148s-62 -148 -147 -148s-147 64 -147 148zM900 -50c-424 0 -771 347 -771 771s347 771 771 771s771 -347 771 -771s-347 -771 -771 -771z" />
    <glyph glyph-name="uni2790" unicode="&#x37;&#x20dd;&#x25cf;" 
d="M641 1108v-123h392v-1l-332 -641h159l325 645v120h-544zM900 -50c-424 0 -771 347 -771 771s347 771 771 771s771 -347 771 -771s-347 -771 -771 -771z" />
    <glyph glyph-name="uni2791" unicode="&#x38;&#x20dd;&#x25cf;" 
d="M896 805c-74 0 -125 44 -125 108s51 108 125 108s125 -44 125 -108s-51 -108 -125 -108zM896 449c-89 0 -154 53 -154 124c0 72 65 125 154 125s154 -53 154 -125c0 -71 -65 -124 -154 -124zM896 338c181 0 304 91 304 227c0 93 -63 167 -163 189v0c83 28 131 92 131 174
c0 121 -111 205 -272 205s-272 -84 -272 -205c0 -82 48 -146 131 -174v0c-100 -22 -163 -96 -163 -189c0 -136 123 -227 304 -227zM900 -50c-424 0 -771 347 -771 771s347 771 771 771s771 -347 771 -771s-347 -771 -771 -771z" />
    <glyph glyph-name="uni2792" unicode="&#x39;&#x20dd;&#x25cf;" 
d="M1046 869c0 -84 -62 -148 -147 -148s-147 64 -147 148s62 148 147 148s147 -64 147 -148zM613 864c0 -141 98 -244 232 -244c53 0 103 18 133 47l8 -2c-5 -9 -18 -28 -34 -51c-63 -86 -184 -240 -202 -262h164c15 18 153 205 163 222c74 105 108 191 108 282
c0 165 -117 275 -287 275c-169 0 -285 -109 -285 -267zM900 -50c-424 0 -771 347 -771 771s347 771 771 771s771 -347 771 -771s-347 -771 -771 -771z" />
    <glyph glyph-name="plus.uc.blackcircle" unicode="&#x2b;&#x20dd;&#x25cf;" 
d="M965 674h231v121h-231v228h-130v-228h-231v-121h231v-237h130v237zM900 -50c-424 0 -771 347 -771 771s347 771 771 771s771 -347 771 -771s-347 -771 -771 -771z" />
    <glyph glyph-name="minus.uc.blackcircle" unicode="&#x2212;&#x20dd;&#x25cf;" 
d="M1184 668v124h-568v-124h568zM900 -50c-424 0 -771 347 -771 771s347 771 771 771s771 -347 771 -771s-347 -771 -771 -771z" />
    <glyph glyph-name="multiply.uc.blackcircle" unicode="&#xd7;&#x20dd;&#x25cf;" 
d="M900 817l-178 170l-91 -87l178 -171l-178 -169l91 -87l178 169l178 -169l91 87l-178 169l178 171l-91 87zM900 -50c-424 0 -771 347 -771 771s347 771 771 771s771 -347 771 -771s-347 -771 -771 -771z" />
    <glyph glyph-name="divide.uc.blackcircle" unicode="&#xf7;&#x20dd;&#x25cf;" 
d="M808 953c0 -49 40 -85 91 -85c52 0 94 36 94 85c0 52 -41 88 -94 88c-51 0 -91 -36 -91 -88zM1184 674v110h-568v-110h568zM808 510c0 -49 40 -85 92 -85s93 36 93 85c0 52 -41 88 -93 88s-92 -36 -92 -88zM900 -50c-424 0 -771 347 -771 771s347 771 771 771
s771 -347 771 -771s-347 -771 -771 -771z" />
    <glyph glyph-name="equal.uc.blackcircle" unicode="&#x3d;&#x20dd;&#x25cf;" 
d="M1167 796v116h-534v-116h534zM1167 548v115h-534v-115h534zM900 -50c-424 0 -771 347 -771 771s347 771 771 771s771 -347 771 -771s-347 -771 -771 -771z" />
    <glyph glyph-name="greater.uc.blackcircle" unicode="&#x3e;&#x20dd;&#x25cf;" 
d="M1188 770l-535 290v-145l368 -190l1 -1l-369 -179v-145l535 274v96zM900 -50c-424 0 -771 347 -771 771s347 771 771 771s771 -347 771 -771s-347 -771 -771 -771z" />
    <glyph glyph-name="less.uc.blackcircle" unicode="&#x3c;&#x20dd;&#x25cf;" 
d="M604 674l534 -274v145l-367 179v1l367 190v145l-534 -290v-96zM900 -50c-424 0 -771 347 -771 771s347 771 771 771s771 -347 771 -771s-347 -771 -771 -771z" />
    <glyph glyph-name="numbersign.blackcircle" unicode="&#x23;&#x20dd;&#x25cf;" 
d="M840 809h147l-34 -157h-146zM1217 805l22 108h-122l42 200h-117l-41 -200h-132l42 200h-117l-41 -200h-113l-22 -108h111l-30 -141h-116l-22 -110h114l-43 -206h117l44 206h132l-44 -206h117l43 206h117l23 110h-116l29 141h123zM900 -50c-424 0 -771 347 -771 771
s347 771 771 771s771 -347 771 -771s-347 -771 -771 -771z" />
    <glyph glyph-name="uni25BC.blackcircle" unicode="&#x25bc;&#x20dd;&#x25cf;" 
d="M1246 980h-691l345 -598zM900 -50c-424 0 -771 347 -771 771s347 771 771 771s771 -347 771 -771s-347 -771 -771 -771z" />
    <glyph glyph-name="uni25B2.blackcircle" unicode="&#x25b2;&#x20dd;&#x25cf;" 
d="M1246 493l-346 598l-345 -598h691zM900 -50c-424 0 -771 347 -771 771s347 771 771 771s771 -347 771 -771s-347 -771 -771 -771z" />
    <glyph glyph-name="uni25C0.blackcircle" unicode="&#x25c0;&#x20dd;&#x25cf;" 
d="M1144 392v689l-599 -344zM900 -50c-424 0 -771 347 -771 771s347 771 771 771s771 -347 771 -771s-347 -771 -771 -771z" />
    <glyph glyph-name="uni25B6.blackcircle" unicode="&#x25b6;&#x20dd;&#x25cf;" 
d="M656 392l599 345l-599 344v-689zM900 -50c-424 0 -771 347 -771 771s347 771 771 771s771 -347 771 -771s-347 -771 -771 -771z" />
    <glyph glyph-name="question.blackcircle" unicode="&#x3f;&#x20dd;&#x25cf;" 
d="M779 429c0 -50 43 -87 102 -87c62 0 103 37 103 87c0 54 -41 90 -103 90c-59 0 -102 -36 -102 -90zM808 590h137v34c0 60 24 77 91 124c57 41 117 86 117 183c0 135 -119 203 -255 203c-127 0 -261 -60 -261 -227v-5h140c0 63 39 115 115 115c56 0 110 -28 110 -93
c0 -52 -36 -77 -87 -112c-65 -45 -112 -97 -107 -181v-41zM902 -50c-424 0 -771 347 -771 771s347 771 771 771s771 -347 771 -771s-347 -771 -771 -771z" />
    <glyph glyph-name="exclam.blackcircle" unicode="&#x21;&#x20dd;&#x25cf;" 
d="M817 1118l17 -505h132l17 505h-166zM798 430c0 -49 42 -87 102 -87s102 38 102 87c0 53 -42 89 -102 89s-102 -36 -102 -89zM900 -50c-424 0 -771 347 -771 771s347 771 771 771s771 -347 771 -771s-347 -771 -771 -771z" />
    <glyph glyph-name="uni2717.blackcircle" unicode="&#x2717;&#x20dd;&#x25cf;" 
d="M904 816l-286 287l-91 -90l285 -287l-284 -284l92 -92l284 284l285 -284l90 92l-284 284l284 284l-90 91zM900 -50c-424 0 -771 347 -771 771s347 771 771 771s771 -347 771 -771s-347 -771 -771 -771z" />
    <glyph glyph-name="uni2713.blackcircle" unicode="&#x2713;&#x20dd;&#x25cf;" 
d="M764 377l600 599l-97 96l-504 -503l-218 217l-97 -96zM900 -50c-424 0 -771 347 -771 771s347 771 771 771s771 -347 771 -771s-347 -771 -771 -771z" />
    <glyph glyph-name="uni1F170" unicode="A&#x20de;&#x25a0;" 
d="M1001 670h-202l99 297h4zM698 354l67 202h270l67 -202h156l-273 766h-170l-273 -766h156zM416 1464h968c143 0 258 -114 258 -254v-976c0 -140 -115 -254 -258 -254h-968c-142 0 -258 114 -258 254v976c0 140 116 254 258 254z" />
    <glyph glyph-name="uni1F171" unicode="B&#x20de;&#x25a0;" 
d="M629 354h323c167 0 283 80 283 218c0 109 -73 174 -169 189v0c74 22 126 79 126 168c0 119 -94 191 -237 191h-326v-766zM780 1005h145c73 0 116 -39 116 -99c0 -69 -48 -104 -158 -104h-103v203zM780 694h155c93 0 143 -44 143 -117c0 -72 -53 -108 -181 -108h-117v225z
M416 1464h968c143 0 258 -114 258 -254v-976c0 -140 -115 -254 -258 -254h-968c-142 0 -258 114 -258 254v976c0 140 116 254 258 254z" />
    <glyph glyph-name="uni1F172" unicode="C&#x20de;&#x25a0;" 
d="M1075 593c-12 -67 -84 -122 -174 -122c-121 0 -202 104 -202 263c0 158 81 264 202 264c92 0 166 -60 178 -132h155c-20 159 -149 265 -335 265c-214 0 -357 -161 -357 -397s143 -396 357 -396c180 0 309 102 333 255h-157zM416 1464h968c143 0 258 -114 258 -254v-976
c0 -140 -115 -254 -258 -254h-968c-142 0 -258 114 -258 254v976c0 140 116 254 258 254z" />
    <glyph glyph-name="uni1F173" unicode="D&#x20de;&#x25a0;" 
d="M598 1120v-766h285c240 0 357 140 357 384s-116 382 -357 382h-285zM750 997h115c150 0 219 -87 219 -261c0 -173 -69 -259 -219 -259h-115v520zM416 1464h968c143 0 258 -114 258 -254v-976c0 -140 -115 -254 -258 -254h-968c-142 0 -258 114 -258 254v976
c0 140 116 254 258 254z" />
    <glyph glyph-name="uni1F174" unicode="E&#x20de;&#x25a0;" 
d="M1159 477h-361v206h339v117h-339v197h361v123h-514v-766h514v123zM416 1464h968c143 0 258 -114 258 -254v-976c0 -140 -115 -254 -258 -254h-968c-142 0 -258 114 -258 254v976c0 140 116 254 258 254z" />
    <glyph glyph-name="uni1F175" unicode="F&#x20de;&#x25a0;" 
d="M830 354v307h324v123h-324v212h353v124h-505v-766h152zM416 1464h968c143 0 258 -114 258 -254v-976c0 -140 -115 -254 -258 -254h-968c-142 0 -258 114 -258 254v976c0 140 116 254 258 254z" />
    <glyph glyph-name="uni1F176" unicode="G&#x20de;&#x25a0;" 
d="M1077 620c0 -76 -60 -142 -174 -142c-123 0 -203 96 -203 256c0 161 80 257 203 257c98 0 165 -47 173 -104h157c-21 143 -153 243 -331 243c-214 0 -361 -160 -361 -396s145 -395 359 -395c203 0 326 134 326 301v134h-312v-127h163v-27zM416 1464h968
c143 0 258 -114 258 -254v-976c0 -140 -115 -254 -258 -254h-968c-142 0 -258 114 -258 254v976c0 140 116 254 258 254z" />
    <glyph glyph-name="uni1F177" unicode="H&#x20de;&#x25a0;" 
d="M1222 354v766h-151v-312h-341v312h-152v-766h152v330h341v-330h151zM416 1464h968c143 0 258 -114 258 -254v-976c0 -140 -115 -254 -258 -254h-968c-142 0 -258 114 -258 254v976c0 140 116 254 258 254z" />
    <glyph glyph-name="uni1F178" unicode="I&#x20de;&#x25a0;" 
d="M976 354v766h-152v-766h152zM416 1464h968c143 0 258 -114 258 -254v-976c0 -140 -115 -254 -258 -254h-968c-142 0 -258 114 -258 254v976c0 140 116 254 258 254z" />
    <glyph glyph-name="uni1F179" unicode="J&#x20de;&#x25a0;" 
d="M606 570c0 -128 89 -230 254 -230c163 0 263 89 263 255v525h-153v-530c0 -77 -38 -119 -112 -119c-61 0 -102 40 -103 99h-149zM416 1464h968c143 0 258 -114 258 -254v-976c0 -140 -115 -254 -258 -254h-968c-142 0 -258 114 -258 254v976c0 140 116 254 258 254z" />
    <glyph glyph-name="uni1F17A" unicode="K&#x20de;&#x25a0;" 
d="M1248 1120h-172l-311 -343v0v343h-152v-766h152v252l79 85l230 -337h185c-98 143 -204 293 -304 436zM416 1464h968c143 0 258 -114 258 -254v-976c0 -140 -115 -254 -258 -254h-968c-142 0 -258 114 -258 254v976c0 140 116 254 258 254z" />
    <glyph glyph-name="uni1F17B" unicode="L&#x20de;&#x25a0;" 
d="M1200 481h-344v639h-153v-766h497v127zM416 1464h968c143 0 258 -114 258 -254v-976c0 -140 -115 -254 -258 -254h-968c-142 0 -258 114 -258 254v976c0 140 116 254 258 254z" />
    <glyph glyph-name="uni1F17C" unicode="M&#x20de;&#x25a0;" 
d="M651 354v521v0l196 -495h106l195 491v0v-517h139v766h-152l-236 -582v0l-233 582h-153v-766h138zM416 1464h968c143 0 258 -114 258 -254v-976c0 -140 -115 -254 -258 -254h-968c-142 0 -258 114 -258 254v976c0 140 116 254 258 254z" />
    <glyph glyph-name="uni1F17D" unicode="N&#x20de;&#x25a0;" 
d="M728 354v523v0l359 -523h131v766h-146v-524v0l-361 524h-129v-766h146zM416 1464h968c143 0 258 -114 258 -254v-976c0 -140 -115 -254 -258 -254h-968c-142 0 -258 114 -258 254v976c0 140 116 254 258 254z" />
    <glyph glyph-name="uni1F17E" unicode="O&#x20de;&#x25a0;" 
d="M900 465c-114 0 -206 95 -206 269c0 175 92 270 206 270s206 -95 206 -270c0 -174 -92 -269 -206 -269zM900 338c199 0 360 143 360 396c0 254 -161 397 -360 397s-360 -143 -360 -397c0 -253 161 -396 360 -396zM416 1464h968c143 0 258 -114 258 -254v-976
c0 -140 -115 -254 -258 -254h-968c-142 0 -258 114 -258 254v976c0 140 116 254 258 254z" />
    <glyph glyph-name="uni1F17F" unicode="P&#x20de;&#x25a0;" 
d="M960 1120h-314v-766h152v263h161c170 0 272 106 272 250s-101 253 -271 253zM1075 867c0 -83 -51 -132 -138 -132h-139v264h139c87 0 138 -47 138 -132zM416 1464h968c143 0 258 -114 258 -254v-976c0 -140 -115 -254 -258 -254h-968c-142 0 -258 114 -258 254v976
c0 140 116 254 258 254z" />
    <glyph glyph-name="uni1F180" unicode="Q&#x20de;&#x25a0;" 
d="M1240 280l-106 142c77 67 126 173 126 312c0 254 -161 397 -360 397s-360 -143 -360 -397c0 -253 161 -396 360 -396c44 0 86 7 125 21l57 -79h158zM900 465c-114 0 -206 95 -206 269c0 175 92 270 206 270s206 -95 206 -270c0 -85 -22 -151 -58 -196l-46 62h-152
l94 -130c-14 -3 -29 -5 -44 -5zM416 1464h968c143 0 258 -114 258 -254v-976c0 -140 -115 -254 -258 -254h-968c-142 0 -258 114 -258 254v976c0 140 116 254 258 254z" />
    <glyph glyph-name="uni1F181" unicode="R&#x20de;&#x25a0;" 
d="M768 755v245h143c85 0 141 -44 141 -125c0 -78 -54 -120 -144 -120h-140zM931 1120h-313v-766h150v287h147l139 -287h173l-161 310c79 29 142 105 142 215c0 147 -103 241 -277 241zM416 1464h968c143 0 258 -114 258 -254v-976c0 -140 -115 -254 -258 -254h-968
c-142 0 -258 114 -258 254v976c0 140 116 254 258 254z" />
    <glyph glyph-name="uni1F182" unicode="S&#x20de;&#x25a0;" 
d="M589 576c4 -145 123 -237 308 -237c193 0 314 92 314 238c0 116 -68 184 -216 218l-127 28c-68 15 -105 47 -105 90c0 63 56 104 141 104s144 -45 151 -113h145c-2 138 -122 232 -295 232c-175 0 -295 -94 -295 -231c0 -108 70 -182 200 -211l127 -30
c86 -19 122 -48 122 -98c0 -66 -59 -107 -154 -107c-94 0 -161 46 -166 117h-150zM416 1464h968c143 0 258 -114 258 -254v-976c0 -140 -115 -254 -258 -254h-968c-142 0 -258 114 -258 254v976c0 140 116 254 258 254z" />
    <glyph glyph-name="uni1F183" unicode="T&#x20de;&#x25a0;" 
d="M976 354v641h229v125h-610v-125h229v-641h152zM416 1464h968c143 0 258 -114 258 -254v-976c0 -140 -115 -254 -258 -254h-968c-142 0 -258 114 -258 254v976c0 140 116 254 258 254z" />
    <glyph glyph-name="uni1F184" unicode="U&#x20de;&#x25a0;" 
d="M900 468c-105 0 -167 61 -167 164v488h-153v-500c0 -169 126 -280 320 -280c193 0 320 112 320 280v500h-153v-488c0 -103 -63 -164 -167 -164zM416 1464h968c143 0 258 -114 258 -254v-976c0 -140 -115 -254 -258 -254h-968c-142 0 -258 114 -258 254v976
c0 140 116 254 258 254z" />
    <glyph glyph-name="uni1F185" unicode="V&#x20de;&#x25a0;" 
d="M986 354l277 766h-175l-186 -608h-4l-186 608h-175l277 -766h172zM416 1464h968c143 0 258 -114 258 -254v-976c0 -140 -115 -254 -258 -254h-968c-142 0 -258 114 -258 254v976c0 140 116 254 258 254z" />
    <glyph glyph-name="uni1F186" unicode="W&#x20de;&#x25a0;" 
d="M898 895h4l151 -541h139l216 766h-168l-122 -566h-4l-145 566h-138l-145 -566h-4l-122 566h-168l217 -766h138zM416 1464h968c143 0 258 -114 258 -254v-976c0 -140 -115 -254 -258 -254h-968c-142 0 -258 114 -258 254v976c0 140 116 254 258 254z" />
    <glyph glyph-name="uni1F187" unicode="X&#x20de;&#x25a0;" 
d="M1252 1120h-174l-168 -279h-4l-173 279h-182l250 -380l-253 -386h170l175 275h3l175 -275h177l-254 381zM416 1464h968c143 0 258 -114 258 -254v-976c0 -140 -115 -254 -258 -254h-968c-142 0 -258 114 -258 254v976c0 140 116 254 258 254z" />
    <glyph glyph-name="uni1F188" unicode="Y&#x20de;&#x25a0;" 
d="M824 354h152v302l271 464h-169l-176 -324h-4l-176 324h-169l271 -464v-302zM416 1464h968c143 0 258 -114 258 -254v-976c0 -140 -115 -254 -258 -254h-968c-142 0 -258 114 -258 254v976c0 140 116 254 258 254z" />
    <glyph glyph-name="uni1F189" unicode="Z&#x20de;&#x25a0;" 
d="M605 354h590v124h-405v0l394 545v97h-567v-124h383v-1l-395 -544v-97zM416 1464h968c143 0 258 -114 258 -254v-976c0 -140 -115 -254 -258 -254h-968c-142 0 -258 114 -258 254v976c0 140 116 254 258 254z" />
    <glyph glyph-name="zero.blacksquare" unicode="&#x30;&#x20de;&#x25a0;" 
d="M896 461c-93 0 -148 97 -148 274s55 274 148 274s148 -97 148 -274s-55 -274 -148 -274zM896 338c183 0 302 150 302 397s-119 397 -302 397s-302 -150 -302 -397s119 -397 302 -397zM416 1464h968c143 0 258 -114 258 -254v-976c0 -140 -115 -254 -258 -254h-968
c-142 0 -258 114 -258 254v976c0 140 116 254 258 254z" />
    <glyph glyph-name="one.blacksquare" unicode="&#x31;&#x20de;&#x25a0;" 
d="M1023 353v765h-148l-191 -132v-140l187 128h1v-621h151zM416 1464h968c143 0 258 -114 258 -254v-976c0 -140 -115 -254 -258 -254h-968c-142 0 -258 114 -258 254v976c0 140 116 254 258 254z" />
    <glyph glyph-name="two.blacksquare" unicode="&#x32;&#x20de;&#x25a0;" 
d="M772 886v11c0 61 43 115 122 115c67 0 119 -45 119 -107c0 -64 -45 -112 -88 -156l-293 -306v-91h546v122h-342v0l203 212c65 70 125 133 125 230c0 123 -106 215 -268 215c-182 0 -270 -117 -270 -234v-11h146zM416 1464h968c143 0 258 -114 258 -254v-976
c0 -140 -115 -254 -258 -254h-968c-142 0 -258 114 -258 254v976c0 140 116 254 258 254z" />
    <glyph glyph-name="three.blacksquare" unicode="&#x33;&#x20de;&#x25a0;" 
d="M804 688h93c85 0 140 -48 141 -115c0 -68 -57 -117 -146 -117c-79 1 -137 43 -144 98h-140c5 -118 106 -216 283 -216c166 0 302 87 300 231c-4 121 -97 177 -169 185v0c58 12 146 73 144 179c-3 115 -108 200 -270 200c-173 -1 -268 -97 -272 -215h144
c3 51 50 97 124 97c72 0 123 -42 124 -103c0 -61 -52 -106 -124 -106h-88v-118zM416 1464h968c143 0 258 -114 258 -254v-976c0 -140 -115 -254 -258 -254h-968c-142 0 -258 114 -258 254v976c0 140 116 254 258 254z" />
    <glyph glyph-name="four.blacksquare" unicode="&#x34;&#x20de;&#x25a0;" 
d="M888 1118c-161 -250 -243 -377 -314 -503v-117h383v-145h145v145h100v120h-100v500h-214zM716 619c73 127 159 257 241 380v0v-381h-241v1zM416 1464h968c143 0 258 -114 258 -254v-976c0 -140 -115 -254 -258 -254h-968c-142 0 -258 114 -258 254v976
c0 140 116 254 258 254z" />
    <glyph glyph-name="five.blacksquare" unicode="&#x35;&#x20de;&#x25a0;" 
d="M619 552c6 -122 116 -213 279 -213c177 0 299 108 299 272c0 158 -119 249 -259 249c-85 0 -139 -37 -160 -63v0c5 65 10 135 17 201h359v120h-483l-35 -448h131c18 33 63 74 135 74c79 0 146 -53 146 -138c0 -95 -72 -148 -144 -148c-67 0 -131 31 -143 94h-142z
M416 1464h968c143 0 258 -114 258 -254v-976c0 -140 -115 -254 -258 -254h-968c-142 0 -258 114 -258 254v976c0 140 116 254 258 254z" />
    <glyph glyph-name="six.blacksquare" unicode="&#x36;&#x20de;&#x25a0;" 
d="M1193 606c0 141 -98 244 -232 244c-53 0 -103 -18 -133 -47l-8 2c5 10 19 29 36 53c63 86 182 238 200 260h-164c-15 -18 -153 -205 -163 -222c-74 -105 -108 -191 -108 -282c0 -165 117 -275 287 -275c169 0 285 109 285 267zM760 601c0 84 62 148 147 148
s147 -64 147 -148s-62 -148 -147 -148s-147 64 -147 148zM416 1464h968c143 0 258 -114 258 -254v-976c0 -140 -115 -254 -258 -254h-968c-142 0 -258 114 -258 254v976c0 140 116 254 258 254z" />
    <glyph glyph-name="seven.blacksquare" unicode="&#x37;&#x20de;&#x25a0;" 
d="M631 1118v-123h392v-1l-332 -641h159l325 645v120h-544zM416 1464h968c143 0 258 -114 258 -254v-976c0 -140 -115 -254 -258 -254h-968c-142 0 -258 114 -258 254v976c0 140 116 254 258 254z" />
    <glyph glyph-name="eight.blacksquare" unicode="&#x38;&#x20de;&#x25a0;" 
d="M896 805c-74 0 -125 44 -125 108s51 108 125 108s125 -44 125 -108s-51 -108 -125 -108zM896 449c-89 0 -154 53 -154 124c0 72 65 125 154 125s154 -53 154 -125c0 -71 -65 -124 -154 -124zM896 338c181 0 304 91 304 227c0 93 -63 167 -163 189v0c83 28 131 92 131 174
c0 121 -111 205 -272 205s-272 -84 -272 -205c0 -82 48 -146 131 -174v0c-100 -22 -163 -96 -163 -189c0 -136 123 -227 304 -227zM416 1464h968c143 0 258 -114 258 -254v-976c0 -140 -115 -254 -258 -254h-968c-142 0 -258 114 -258 254v976c0 140 116 254 258 254z" />
    <glyph glyph-name="nine.blacksquare" unicode="&#x39;&#x20de;&#x25a0;" 
d="M602 864c0 -141 98 -244 232 -244c53 0 103 18 133 47l8 -2c-5 -8 -15 -23 -28 -42c-60 -84 -189 -248 -208 -271h164c15 18 153 205 163 222c74 105 108 191 108 282c0 165 -117 275 -287 275c-169 0 -285 -109 -285 -267zM1035 869c0 -84 -62 -148 -147 -148
s-147 64 -147 148s62 148 147 148s147 -64 147 -148zM416 1464h968c143 0 258 -114 258 -254v-976c0 -140 -115 -254 -258 -254h-968c-142 0 -258 114 -258 254v976c0 140 116 254 258 254z" />
    <glyph glyph-name="plus.uc.blacksquare" unicode="&#x2b;&#x20de;&#x25a0;" 
d="M965 674h231v121h-231v228h-130v-228h-231v-121h231v-237h130v237zM416 1464h968c143 0 258 -114 258 -254v-976c0 -140 -115 -254 -258 -254h-968c-142 0 -258 114 -258 254v976c0 140 116 254 258 254z" />
    <glyph glyph-name="minus.uc.blacksquare" unicode="&#x2212;&#x20de;&#x25a0;" 
d="M1184 668v124h-568v-124h568zM416 1464h968c143 0 258 -114 258 -254v-976c0 -140 -115 -254 -258 -254h-968c-142 0 -258 114 -258 254v976c0 140 116 254 258 254z" />
    <glyph glyph-name="multiply.uc.blacksquare" unicode="&#xd7;&#x20de;&#x25a0;" 
d="M900 817l-178 170l-91 -87l178 -171l-178 -169l91 -87l178 169l178 -169l91 87l-178 169l178 171l-91 87zM416 1464h968c143 0 258 -114 258 -254v-976c0 -140 -115 -254 -258 -254h-968c-142 0 -258 114 -258 254v976c0 140 116 254 258 254z" />
    <glyph glyph-name="divide.uc.blacksquare" unicode="&#xf7;&#x20de;&#x25a0;" 
d="M808 953c0 -49 40 -85 91 -85c52 0 94 36 94 85c0 52 -41 88 -94 88c-51 0 -91 -36 -91 -88zM1184 674v110h-568v-110h568zM808 510c0 -49 40 -85 92 -85s93 36 93 85c0 52 -41 88 -93 88s-92 -36 -92 -88zM416 1464h968c143 0 258 -114 258 -254v-976
c0 -140 -115 -254 -258 -254h-968c-142 0 -258 114 -258 254v976c0 140 116 254 258 254z" />
    <glyph glyph-name="equal.uc.blacksquare" unicode="&#x3d;&#x20de;&#x25a0;" 
d="M1167 796v116h-534v-116h534zM1167 548v115h-534v-115h534zM416 1464h968c143 0 258 -114 258 -254v-976c0 -140 -115 -254 -258 -254h-968c-142 0 -258 114 -258 254v976c0 140 116 254 258 254z" />
    <glyph glyph-name="greater.uc.blacksquare" unicode="&#x3e;&#x20de;&#x25a0;" 
d="M1188 770l-535 290v-145l368 -190l1 -1l-369 -179v-145l535 274v96zM416 1464h968c143 0 258 -114 258 -254v-976c0 -140 -115 -254 -258 -254h-968c-142 0 -258 114 -258 254v976c0 140 116 254 258 254z" />
    <glyph glyph-name="less.uc.blacksquare" unicode="&#x3c;&#x20de;&#x25a0;" 
d="M604 674l534 -274v145c-120 60 -246 120 -367 179v1l367 190v145l-534 -290v-96zM416 1464h968c143 0 258 -114 258 -254v-976c0 -140 -115 -254 -258 -254h-968c-142 0 -258 114 -258 254v976c0 140 116 254 258 254z" />
    <glyph glyph-name="numbersign.blacksquare" unicode="&#x23;&#x20de;&#x25a0;" 
d="M840 809h147l-34 -157h-146zM1217 805l22 108h-122l42 200h-117l-41 -200h-132l42 200h-117l-41 -200h-113l-22 -108h111l-30 -141h-116l-22 -110h114l-43 -206h117l44 206h132l-44 -206h117l43 206h117l23 110h-116l29 141h123zM416 1464h968c143 0 258 -114 258 -254
v-976c0 -140 -115 -254 -258 -254h-968c-142 0 -258 114 -258 254v976c0 140 116 254 258 254z" />
    <glyph glyph-name="uni25BC.blacksquare" unicode="&#x25bc;&#x20de;&#x25a0;" 
d="M1246 975h-691l345 -599zM416 1464h968c143 0 258 -114 258 -254v-976c0 -140 -115 -254 -258 -254h-968c-142 0 -258 114 -258 254v976c0 140 116 254 258 254z" />
    <glyph glyph-name="uni25B2.blacksquare" unicode="&#x25b2;&#x20de;&#x25a0;" 
d="M1246 493l-346 598l-345 -598h691zM416 1464h968c143 0 258 -114 258 -254v-976c0 -140 -115 -254 -258 -254h-968c-142 0 -258 114 -258 254v976c0 140 116 254 258 254z" />
    <glyph glyph-name="uni25C0.blacksquare" unicode="&#x25c0;&#x20de;&#x25a0;" 
d="M1144 392v689l-599 -344zM416 1464h968c143 0 258 -114 258 -254v-976c0 -140 -115 -254 -258 -254h-968c-142 0 -258 114 -258 254v976c0 140 116 254 258 254z" />
    <glyph glyph-name="uni25B6.blacksquare" unicode="&#x25b6;&#x20de;&#x25a0;" 
d="M656 392l599 345l-599 344v-689zM416 1464h968c143 0 258 -114 258 -254v-976c0 -140 -115 -254 -258 -254h-968c-142 0 -258 114 -258 254v976c0 140 116 254 258 254z" />
    <glyph glyph-name="question.blacksquare" unicode="&#x3f;&#x20de;&#x25a0;" 
d="M779 429c0 -50 43 -87 102 -87c62 0 103 37 103 87c0 54 -41 90 -103 90c-59 0 -102 -36 -102 -90zM898 1134c-127 0 -261 -60 -261 -227v-5h140c0 63 39 115 115 115c56 0 110 -28 110 -93c0 -52 -36 -77 -87 -112c-65 -45 -112 -97 -107 -181v-41h137v34
c0 60 24 77 91 124c57 41 117 86 117 183c0 135 -119 203 -255 203zM416 1464h968c143 0 258 -114 258 -254v-976c0 -140 -115 -254 -258 -254h-968c-142 0 -258 114 -258 254v976c0 140 116 254 258 254z" />
    <glyph glyph-name="exclam.blacksquare" unicode="&#x21;&#x20de;&#x25a0;" 
d="M817 1118l17 -505h132l17 505h-166zM798 430c0 -49 42 -87 102 -87s102 38 102 87c0 53 -42 89 -102 89s-102 -36 -102 -89zM416 1464h968c143 0 258 -114 258 -254v-976c0 -140 -115 -254 -258 -254h-968c-142 0 -258 114 -258 254v976c0 140 116 254 258 254z" />
    <glyph glyph-name="uni2717.blacksquare" unicode="&#x2717;&#x20de;&#x25a0;" 
d="M527 1013l285 -287l-284 -284l92 -92l284 284l285 -284l90 92l-284 284l284 284l-90 91l-285 -285l-286 287zM416 1464h968c143 0 258 -114 258 -254v-976c0 -140 -115 -254 -258 -254h-968c-142 0 -258 114 -258 254v976c0 140 116 254 258 254z" />
    <glyph glyph-name="uni2713.blacksquare" unicode="&#x2713;&#x20de;&#x25a0;" 
d="M764 377l600 599l-97 96l-504 -503l-218 217l-97 -96zM416 1464h968c143 0 258 -114 258 -254v-976c0 -140 -115 -254 -258 -254h-968c-142 0 -258 114 -258 254v976c0 140 116 254 258 254z" />
    <glyph glyph-name=".notdef" horiz-adv-x="2048" 
d="M100 -494v284h1848v-284h-1848zM100 -62v284h1848v-284h-1848zM100 370v284h1848v-284h-1848zM100 802v284h1848v-284h-1848zM100 1234v284h1848v-284h-1848zM100 1666v284h1848v-284h-1848z" />
    <glyph glyph-name=".null" horiz-adv-x="0" 
 />
    <glyph glyph-name="nonmarkingreturn" horiz-adv-x="0" 
 />
    <glyph glyph-name="space" unicode=" " horiz-adv-x="578" 
 />
    <glyph glyph-name="A" unicode="A" horiz-adv-x="1380" 
d="M1122 0l-145 413h-574l-145 -413h-189l532 1443h178l532 -1443h-189zM682 1210l-226 -644h468l-226 644h-16z" />
    <glyph glyph-name="Agrave" unicode="&#xc0;" horiz-adv-x="1380" 
d="M1122 0l-145 413h-574l-145 -413h-189l532 1443h178l532 -1443h-189zM682 1210l-226 -644h468l-226 644h-16zM584 1575l-332 298h226l310 -298h-204z" />
    <glyph glyph-name="Aacute" unicode="&#xc1;" horiz-adv-x="1380" 
d="M1122 0l-145 413h-574l-145 -413h-189l532 1443h178l532 -1443h-189zM682 1210l-226 -644h468l-226 644h-16zM788 1575h-204l310 298h226z" />
    <glyph glyph-name="Adieresis" unicode="&#xc4;" horiz-adv-x="1380" 
d="M1122 0l-145 413h-574l-145 -413h-189l532 1443h178l532 -1443h-189zM682 1210l-226 -644h468l-226 644h-16zM488 1575c-67 0 -121 54 -121 121s54 121 121 121s121 -54 121 -121s-54 -121 -121 -121zM892 1575c-67 0 -121 54 -121 121s54 121 121 121s121 -54 121 -121
s-54 -121 -121 -121z" />
    <glyph glyph-name="Adieresismacron" unicode="&#x1de;" horiz-adv-x="1380" 
d="M1122 0l-145 413h-574l-145 -413h-189l532 1443h178l532 -1443h-189zM682 1210l-226 -644h468l-226 644h-16zM488 1809c65 0 117 -52 117 -117s-52 -117 -117 -117s-117 52 -117 117s52 117 117 117zM353 2062h674v-130h-674v130zM892 1809c65 0 117 -52 117 -117
s-52 -117 -117 -117s-117 52 -117 117s52 117 117 117z" />
    <glyph glyph-name="Aring" unicode="&#xc5;" horiz-adv-x="1380" 
d="M1122 0l-145 413h-574l-145 -413h-189l532 1443h178l532 -1443h-189zM682 1210l-226 -644h468l-226 644h-16zM690 1551c-110 0 -199 86 -199 197s89 197 199 197s199 -86 199 -197s-89 -197 -199 -197zM690 1643c61 0 105 45 105 105c0 61 -44 105 -105 105
s-105 -44 -105 -105c0 -60 44 -105 105 -105z" />
    <glyph glyph-name="Aringacute" unicode="&#x1fa;" horiz-adv-x="1380" 
d="M1122 0l-145 413h-574l-145 -413h-189l532 1443h178l532 -1443h-189zM682 1210l-226 -644h468l-226 644h-16zM690 1533c-111 0 -202 87 -202 198s91 198 202 198s202 -87 202 -198s-91 -198 -202 -198zM690 1628c57 0 100 45 100 102s-43 102 -100 102
s-100 -45 -100 -102s43 -102 100 -102zM760 2173h187l-174 -181h-161z" />
    <glyph glyph-name="Atilde" unicode="&#xc3;" horiz-adv-x="1380" 
d="M1122 0l-145 413h-574l-145 -413h-189l532 1443h178l532 -1443h-189zM682 1210l-226 -644h468l-226 644h-16zM835 1580c-160 0 -204 157 -284 157c-70 0 -98 -44 -98 -157h-142c0 182 87 291 232 291c160 0 204 -157 284 -157c70 0 98 44 98 157h142
c0 -182 -87 -291 -232 -291z" />
    <glyph glyph-name="Abrevegrave" unicode="&#x1eb0;" horiz-adv-x="1380" 
d="M1122 0l-145 413h-574l-145 -413h-189l532 1443h178l532 -1443h-189zM682 1210l-226 -644h468l-226 644h-16zM1054 1873c0 -179 -138 -298 -364 -298s-364 119 -364 298h154c0 -105 80 -173 210 -173s210 68 210 173h154zM814 1873h-192l-246 222h218z" />
    <glyph glyph-name="Adotmacron" unicode="&#x1e0;" horiz-adv-x="1380" 
d="M1122 0l-145 413h-574l-145 -413h-189l532 1443h178l532 -1443h-189zM682 1210l-226 -644h468l-226 644h-16zM690 1577c-66 0 -119 53 -119 119s53 119 119 119s119 -53 119 -119s-53 -119 -119 -119zM1027 2062v-130h-674v130h674z" />
    <glyph glyph-name="Aringbelow" unicode="&#x1e00;" horiz-adv-x="1380" 
d="M1122 0l-145 413h-574l-145 -413h-189l532 1443h178l532 -1443h-189zM682 1210l-226 -644h468l-226 644h-16zM690 -573c-128 0 -232 100 -232 229s104 229 232 229s232 -100 232 -229s-104 -229 -232 -229zM690 -467c70 0 122 53 122 123s-52 123 -122 123
s-122 -53 -122 -123s52 -123 122 -123z" />
    <glyph glyph-name="Acircumflex" unicode="&#xc2;" horiz-adv-x="1380" 
d="M1122 0l-145 413h-574l-145 -413h-189l532 1443h178l532 -1443h-189zM682 1210l-226 -644h468l-226 644h-16zM608 1873h164l300 -298h-202l-172 177h-16l-172 -177h-202z" />
    <glyph glyph-name="Acircumflexdotbelow" unicode="&#x1eac;" horiz-adv-x="1380" 
d="M1122 0l-145 413h-574l-145 -413h-189l532 1443h178l532 -1443h-189zM682 1210l-226 -644h468l-226 644h-16zM608 1873h164l300 -298h-202l-172 177h-16l-172 -177h-202zM690 -402c-67 0 -121 54 -121 121s54 121 121 121s121 -54 121 -121s-54 -121 -121 -121z" />
    <glyph glyph-name="Acircumflexacute" unicode="&#x1ea4;" horiz-adv-x="1380" 
d="M1122 0l-145 413h-574l-145 -413h-189l532 1443h178l532 -1443h-189zM682 1210l-226 -644h468l-226 644h-16zM592 1808h196l294 -233h-222l-162 135h-16l-162 -135h-222zM888 1853l220 242h216l-246 -242h-190z" />
    <glyph glyph-name="Acircumflextilde" unicode="&#x1eaa;" horiz-adv-x="1380" 
d="M1122 0l-145 413h-574l-145 -413h-189l532 1443h178l532 -1443h-189zM682 1210l-226 -644h468l-226 644h-16zM830 1854c-170 0 -168 128 -276 128c-57 0 -90 -38 -94 -111h-136c0 141 92 241 226 241c170 0 168 -128 276 -128c48 0 89 33 95 111h135
c0 -133 -92 -241 -226 -241zM592 1808h196l294 -233h-222l-162 135h-16l-162 -135h-222z" />
    <glyph glyph-name="Acircumflexgrave" unicode="&#x1ea6;" horiz-adv-x="1380" 
d="M1122 0l-145 413h-574l-145 -413h-189l532 1443h178l532 -1443h-189zM682 1210l-226 -644h468l-226 644h-16zM592 1808h196l294 -233h-222l-162 135h-16l-162 -135h-222zM1124 1853h-190l-246 242h216z" />
    <glyph glyph-name="Acircumflexhookabove" unicode="&#x1ea8;" horiz-adv-x="1380" 
d="M1122 0l-145 413h-574l-145 -413h-189l532 1443h178l532 -1443h-189zM682 1210l-226 -644h468l-226 644h-16zM592 1808h196l294 -233h-222l-162 135h-16l-162 -135h-222zM802 1977v102c22 8 75 16 135 16c108 0 183 -64 183 -159c0 -77 -53 -151 -129 -175l-98 71
c51 17 84 55 84 97c0 37 -34 64 -81 64c-37 0 -74 -7 -94 -16z" />
    <glyph glyph-name="Abreve" unicode="&#x102;" horiz-adv-x="1380" 
d="M1122 0l-145 413h-574l-145 -413h-189l532 1443h178l532 -1443h-189zM682 1210l-226 -644h468l-226 644h-16zM326 1873h154c0 -105 80 -173 210 -173s210 68 210 173h154c0 -179 -138 -298 -364 -298s-364 119 -364 298z" />
    <glyph glyph-name="Abreveacute" unicode="&#x1eae;" horiz-adv-x="1380" 
d="M1122 0l-145 413h-574l-145 -413h-189l532 1443h178l532 -1443h-189zM682 1210l-226 -644h468l-226 644h-16zM326 1873h154c0 -105 80 -173 210 -173s210 68 210 173h154c0 -179 -138 -298 -364 -298s-364 119 -364 298zM566 1873l220 222h218l-246 -222h-192z" />
    <glyph glyph-name="Abrevetilde" unicode="&#x1eb4;" horiz-adv-x="1380" 
d="M1122 0l-145 413h-574l-145 -413h-189l532 1443h178l532 -1443h-189zM682 1210l-226 -644h468l-226 644h-16zM326 1813h154c0 -51 76 -113 210 -113s210 62 210 113h154c0 -119 -138 -238 -364 -238s-364 119 -364 238zM842 1854c-164 0 -186 130 -292 130
c-56 0 -89 -40 -90 -93h-136c0 121 80 221 214 221c164 0 186 -130 292 -130c47 0 88 35 91 93h135c0 -113 -80 -221 -214 -221z" />
    <glyph glyph-name="Abrevehookabove" unicode="&#x1eb2;" horiz-adv-x="1380" 
d="M1122 0l-145 413h-574l-145 -413h-189l532 1443h178l532 -1443h-189zM682 1210l-226 -644h468l-226 644h-16zM522 2040v105c29 16 75 28 126 28c124 0 206 -71 206 -180c0 -86 -65 -167 -167 -204l-62 88c57 17 96 62 96 109c0 43 -41 77 -93 77c-38 0 -79 -10 -106 -23z
M326 1853h154c0 -89 76 -153 210 -153s210 64 210 153h154c0 -157 -136 -278 -364 -278s-364 121 -364 278z" />
    <glyph glyph-name="Abrevedotbelow" unicode="&#x1eb6;" horiz-adv-x="1380" 
d="M1122 0l-145 413h-574l-145 -413h-189l532 1443h178l532 -1443h-189zM682 1210l-226 -644h468l-226 644h-16zM326 1873h154c0 -105 80 -173 210 -173s210 68 210 173h154c0 -179 -138 -298 -364 -298s-364 119 -364 298zM690 -402c-67 0 -121 54 -121 121s54 121 121 121
s121 -54 121 -121s-54 -121 -121 -121z" />
    <glyph glyph-name="Ainvertedbreve" unicode="&#x202;" horiz-adv-x="1380" 
d="M1122 0l-145 413h-574l-145 -413h-189l532 1443h178l532 -1443h-189zM682 1210l-226 -644h468l-226 644h-16zM326 1575c0 179 138 298 364 298s364 -119 364 -298h-154c0 105 -80 173 -210 173s-210 -68 -210 -173h-154z" />
    <glyph glyph-name="Acaron" unicode="&#x1cd;" horiz-adv-x="1380" 
d="M1122 0l-145 413h-574l-145 -413h-189l532 1443h178l532 -1443h-189zM682 1210l-226 -644h468l-226 644h-16zM608 1575l-300 298h202l172 -177h16l172 177h202l-300 -298h-164z" />
    <glyph glyph-name="Adotaccent" unicode="&#x226;" horiz-adv-x="1380" 
d="M1122 0l-145 413h-574l-145 -413h-189l532 1443h178l532 -1443h-189zM682 1210l-226 -644h468l-226 644h-16zM690 1575c-67 0 -121 54 -121 121s54 121 121 121s121 -54 121 -121s-54 -121 -121 -121z" />
    <glyph glyph-name="Adotbelow" unicode="&#x1ea0;" horiz-adv-x="1380" 
d="M1122 0l-145 413h-574l-145 -413h-189l532 1443h178l532 -1443h-189zM682 1210l-226 -644h468l-226 644h-16zM690 -402c-67 0 -121 54 -121 121s54 121 121 121s121 -54 121 -121s-54 -121 -121 -121z" />
    <glyph glyph-name="Ahookabove" unicode="&#x1ea2;" horiz-adv-x="1380" 
d="M1122 0l-145 413h-574l-145 -413h-189l532 1443h178l532 -1443h-189zM682 1210l-226 -644h468l-226 644h-16zM515 1780v120c31 13 84 21 131 21c138 0 223 -69 223 -180c0 -91 -75 -179 -182 -214l-73 97c64 19 109 63 109 105s-42 73 -98 73c-44 0 -84 -8 -110 -22z" />
    <glyph glyph-name="Adblgrave" unicode="&#x200;" horiz-adv-x="1380" 
d="M1122 0l-145 413h-574l-145 -413h-189l532 1443h178l532 -1443h-189zM682 1210l-226 -644h468l-226 644h-16zM810 1575l-332 298h226l310 -298h-204zM396 1575l-332 298h226l310 -298h-204z" />
    <glyph glyph-name="Amacron" unicode="&#x100;" horiz-adv-x="1380" 
d="M1122 0l-145 413h-574l-145 -413h-189l532 1443h178l532 -1443h-189zM682 1210l-226 -644h468l-226 644h-16zM1027 1756v-136h-674v136h674z" />
    <glyph glyph-name="Aogonek" unicode="&#x104;" horiz-adv-x="1380" 
d="M682 1210l-226 -644h468l-226 644h-16zM1294 -416c-23 -8 -56 -16 -104 -16c-148 0 -243 90 -243 204c0 97 74 185 173 236l-143 405h-574l-145 -413h-189l532 1443h178l532 -1443l-11 -5c-92 -42 -184 -98 -184 -185c0 -65 55 -98 112 -98c32 0 54 3 66 6v-134z" />
    <glyph glyph-name="Aogonek.mini" horiz-adv-x="1380" 
d="M682 1210l-226 -644h468l-226 644h-16zM1120 8l-143 405h-574l-145 -413h-189l532 1443h178l532 -1443l-11 -5c-92 -42 -184 -98 -184 -185c0 -65 55 -98 112 -98c32 0 54 3 66 6v-134c-23 -8 -56 -16 -104 -16c-148 0 -243 90 -243 204c0 97 74 185 173 236z" />
    <glyph glyph-name="Aringbelow.mini" horiz-adv-x="1380" 
d="M1122 0l-145 413h-574l-145 -413h-189l532 1443h178l532 -1443h-189zM682 1210l-226 -644h468l-226 644h-16zM596 -261c0 -53 40 -96 94 -96s94 43 94 96c0 54 -40 97 -94 97s-94 -43 -94 -97zM690 -432c-96 0 -174 74 -174 171s78 172 174 172s174 -75 174 -172
s-78 -171 -174 -171z" />
    <glyph glyph-name="A.mini" horiz-adv-x="1380" 
d="M687 1116l-212 -550h430l-212 550h-6zM1124 0l-160 413h-548l-160 -413h-187l532 1313h178l532 -1313h-187z" />
    <glyph glyph-name="Adieresismacron.mini" horiz-adv-x="1380" 
d="M687 1116l-212 -550h430l-212 550h-6zM1124 0l-160 413h-548l-160 -413h-187l532 1313h178l532 -1313h-187zM353 1802v130h674v-130h-674zM488 1445c-65 0 -117 52 -117 117s52 117 117 117s117 -52 117 -117s-52 -117 -117 -117zM892 1445c-65 0 -117 52 -117 117
s52 117 117 117s117 -52 117 -117s-52 -117 -117 -117z" />
    <glyph glyph-name="Aringacute.mini" horiz-adv-x="1380" 
d="M687 1116l-212 -550h430l-212 550h-6zM1124 0l-160 413h-548l-160 -413h-187l532 1313h178l532 -1313h-187zM594 1572c0 -55 41 -98 96 -98s96 43 96 98s-41 98 -96 98s-96 -43 -96 -98zM690 1383c-107 0 -194 83 -194 190s87 190 194 190s194 -83 194 -190
s-87 -190 -194 -190zM717 1950h177l-118 -130h-139z" />
    <glyph glyph-name="Abrevegrave.mini" horiz-adv-x="1380" 
d="M687 1116l-212 -550h430l-212 550h-6zM1124 0l-160 413h-548l-160 -413h-187l532 1313h178l532 -1313h-187zM326 1743h154c0 -105 80 -173 210 -173s210 68 210 173h154c0 -179 -138 -298 -364 -298s-364 119 -364 298zM796 1743h-190l-214 207h214z" />
    <glyph glyph-name="Adotmacron.mini" horiz-adv-x="1380" 
d="M687 1116l-212 -550h430l-212 550h-6zM1124 0l-160 413h-548l-160 -413h-187l532 1313h178l532 -1313h-187zM690 1447c-66 0 -119 53 -119 119s53 119 119 119s119 -53 119 -119s-53 -119 -119 -119zM1027 1802h-674v130h674v-130z" />
    <glyph glyph-name="Acircumflexacute.mini" horiz-adv-x="1380" 
d="M687 1116l-212 -550h430l-212 550h-6zM1124 0l-160 413h-548l-160 -413h-187l532 1313h178l532 -1313h-187zM788 1678l294 -233h-222l-162 135h-16l-162 -135h-222l294 233h196zM888 1723l190 227h216l-216 -227h-190z" />
    <glyph glyph-name="Acircumflextilde.mini" horiz-adv-x="1380" 
d="M687 1116l-212 -550h430l-212 550h-6zM1124 0l-160 413h-548l-160 -413h-187l532 1313h178l532 -1313h-187zM788 1678l294 -233h-222l-162 135h-16l-162 -135h-222l294 233h196zM842 1722c-166 0 -179 102 -287 102c-57 0 -91 -32 -95 -81h-134c0 123 78 207 210 207
c170 0 187 -102 289 -102c60 0 89 27 95 95h134c0 -133 -78 -221 -212 -221z" />
    <glyph glyph-name="Acircumflexgrave.mini" horiz-adv-x="1380" 
d="M687 1116l-212 -550h430l-212 550h-6zM1124 0l-160 413h-548l-160 -413h-187l532 1313h178l532 -1313h-187zM788 1678l294 -233h-222l-162 135h-16l-162 -135h-222l294 233h196zM1114 1723h-190l-216 227h216z" />
    <glyph glyph-name="Acircumflexhookabove.mini" horiz-adv-x="1380" 
d="M687 1116l-212 -550h430l-212 550h-6zM1124 0l-160 413h-548l-160 -413h-187l532 1313h178l532 -1313h-187zM788 1678l294 -233h-222l-162 135h-16l-162 -135h-222l294 233h196zM802 1832v102c22 8 75 16 135 16c108 0 183 -64 183 -159c0 -77 -52 -151 -128 -175l-96 69
c51 17 81 57 81 99c0 37 -34 64 -81 64c-37 0 -74 -7 -94 -16z" />
    <glyph glyph-name="Abreveacute.mini" horiz-adv-x="1380" 
d="M687 1116l-212 -550h430l-212 550h-6zM1124 0l-160 413h-548l-160 -413h-187l532 1313h178l532 -1313h-187zM326 1743h154c0 -105 80 -173 210 -173s210 68 210 173h154c0 -179 -138 -298 -364 -298s-364 119 -364 298zM566 1743l190 207h214l-214 -207h-190z" />
    <glyph glyph-name="Abrevehookabove.mini" horiz-adv-x="1380" 
d="M687 1116l-212 -550h430l-212 550h-6zM1124 0l-160 413h-548l-160 -413h-187l532 1313h178l532 -1313h-187zM326 1723h154c0 -89 76 -153 210 -153s210 64 210 153h154c0 -157 -136 -278 -364 -278s-364 121 -364 278zM527 1825v101c32 15 76 24 115 24
c108 0 191 -52 191 -141c0 -80 -61 -147 -132 -166l-71 82c36 5 70 29 70 71c0 35 -29 47 -79 47c-46 0 -69 -7 -94 -18z" />
    <glyph glyph-name="Abrevetilde.mini" horiz-adv-x="1380" 
d="M687 1116l-212 -550h430l-212 550h-6zM1124 0l-160 413h-548l-160 -413h-187l532 1313h178l532 -1313h-187zM326 1683h154c0 -51 76 -113 210 -113s210 62 210 113h154c0 -119 -138 -238 -364 -238s-364 119 -364 238zM842 1722c-157 0 -181 102 -287 102
c-57 0 -91 -32 -95 -81h-134c0 111 76 207 210 207c152 0 187 -102 289 -102c60 0 89 27 95 95h134c0 -123 -72 -221 -212 -221z" />
    <glyph glyph-name="B" unicode="B" horiz-adv-x="1346" 
d="M747 0h-563v1443h552c265 0 427 -139 427 -360c0 -150 -110 -286 -249 -311v-16c197 -25 322 -160 322 -351c0 -254 -182 -405 -489 -405zM364 1284v-463h288c218 0 329 78 329 231c0 147 -104 232 -283 232h-334zM364 159h356c217 0 331 88 331 255s-118 252 -348 252
h-339v-507z" />
    <glyph glyph-name="Blinebelow" unicode="&#x1e06;" horiz-adv-x="1346" 
d="M747 0h-563v1443h552c265 0 427 -139 427 -360c0 -150 -110 -286 -249 -311v-16c197 -25 322 -160 322 -351c0 -254 -182 -405 -489 -405zM364 1284v-463h288c218 0 329 78 329 231c0 147 -104 232 -283 232h-334zM364 159h356c217 0 331 88 331 255s-118 252 -348 252
h-339v-507zM942 -212v-136h-674v136h674z" />
    <glyph glyph-name="Bdotbelow" unicode="&#x1e04;" horiz-adv-x="1346" 
d="M747 0h-563v1443h552c265 0 427 -139 427 -360c0 -150 -110 -286 -249 -311v-16c197 -25 322 -160 322 -351c0 -254 -182 -405 -489 -405zM364 1284v-463h288c218 0 329 78 329 231c0 147 -104 232 -283 232h-334zM364 159h356c217 0 331 88 331 255s-118 252 -348 252
h-339v-507zM605 -402c-67 0 -121 54 -121 121s54 121 121 121s121 -54 121 -121s-54 -121 -121 -121z" />
    <glyph glyph-name="Bdotaccent" unicode="&#x1e02;" horiz-adv-x="1346" 
d="M747 0h-563v1443h552c265 0 427 -139 427 -360c0 -150 -110 -286 -249 -311v-16c197 -25 322 -160 322 -351c0 -254 -182 -405 -489 -405zM364 1284v-463h288c218 0 329 78 329 231c0 147 -104 232 -283 232h-334zM364 159h356c217 0 331 88 331 255s-118 252 -348 252
h-339v-507zM604 1575c-67 0 -121 54 -121 121s54 121 121 121s121 -54 121 -121s-54 -121 -121 -121z" />
    <glyph glyph-name="C" unicode="C" horiz-adv-x="1466" 
d="M765 -34c-392 0 -637 290 -637 755c0 466 244 756 636 756c304 0 541 -191 584 -469h-183c-48 186 -202 303 -401 303c-277 0 -451 -228 -451 -590s174 -589 452 -589c201 0 354 103 400 270h183c-48 -265 -276 -436 -583 -436z" />
    <glyph glyph-name="Cacute" unicode="&#x106;" horiz-adv-x="1466" 
d="M765 -34c-392 0 -637 290 -637 755c0 466 244 756 636 756c304 0 541 -191 584 -469h-183c-48 186 -202 303 -401 303c-277 0 -451 -228 -451 -590s174 -589 452 -589c201 0 354 103 400 270h183c-48 -265 -276 -436 -583 -436zM862 1577h-204l310 298h226z" />
    <glyph glyph-name="Ccaron" unicode="&#x10c;" horiz-adv-x="1466" 
d="M765 -34c-392 0 -637 290 -637 755c0 466 244 756 636 756c304 0 541 -191 584 -469h-183c-48 186 -202 303 -401 303c-277 0 -451 -228 -451 -590s174 -589 452 -589c201 0 354 103 400 270h183c-48 -265 -276 -436 -583 -436zM682 1577l-300 298h202l172 -177h16
l172 177h202l-300 -298h-164z" />
    <glyph glyph-name="Ccircumflex" unicode="&#x108;" horiz-adv-x="1466" 
d="M765 -34c-392 0 -637 290 -637 755c0 466 244 756 636 756c304 0 541 -191 584 -469h-183c-48 186 -202 303 -401 303c-277 0 -451 -228 -451 -590s174 -589 452 -589c201 0 354 103 400 270h183c-48 -265 -276 -436 -583 -436zM682 1875h164l300 -298h-202l-172 177h-16
l-172 -177h-202z" />
    <glyph glyph-name="Cdotaccent" unicode="&#x10a;" horiz-adv-x="1466" 
d="M765 -34c-392 0 -637 290 -637 755c0 466 244 756 636 756c304 0 541 -191 584 -469h-183c-48 186 -202 303 -401 303c-277 0 -451 -228 -451 -590s174 -589 452 -589c201 0 354 103 400 270h183c-48 -265 -276 -436 -583 -436zM764 1577c-67 0 -121 54 -121 121
s54 121 121 121s121 -54 121 -121s-54 -121 -121 -121z" />
    <glyph glyph-name="Ccedilla" unicode="&#xc7;" horiz-adv-x="1466" 
d="M1348 1008h-183c-48 186 -202 303 -401 303c-277 0 -451 -228 -451 -590s174 -589 452 -589c201 0 354 103 400 270h183c-45 -247 -246 -412 -521 -434l-39 -100c136 0 215 -60 215 -163c0 -111 -91 -189 -244 -189c-59 0 -105 6 -146 18v108c24 -7 86 -14 122 -14
c77 0 119 26 119 73c0 46 -43 65 -149 65h-59v84l49 119c-351 33 -567 316 -567 752c0 466 244 756 636 756c304 0 541 -191 584 -469z" />
    <glyph glyph-name="Ccedillaacute" unicode="&#x1e08;" horiz-adv-x="1466" 
d="M1194 1875l-332 -298h-204l310 298h226zM1348 1008h-183c-48 186 -202 303 -401 303c-277 0 -451 -228 -451 -590s174 -589 452 -589c201 0 354 103 400 270h183c-45 -247 -246 -412 -521 -434l-39 -100c136 0 215 -60 215 -163c0 -111 -91 -189 -244 -189
c-59 0 -105 6 -146 18v108c24 -7 86 -14 122 -14c77 0 119 26 119 73c0 46 -43 65 -149 65h-59v84l49 119c-351 33 -567 316 -567 752c0 466 244 756 636 756c304 0 541 -191 584 -469z" />
    <glyph glyph-name="Ccedilla.mini" horiz-adv-x="1466" 
d="M1348 1008h-183c-48 186 -202 303 -401 303c-277 0 -451 -228 -451 -590s174 -589 452 -589c201 0 354 103 400 270h183c-44 -245 -242 -409 -514 -433l-36 -83c126 -5 194 -58 194 -150c0 -103 -94 -168 -245 -168c-42 0 -86 5 -115 14v105c31 -7 68 -10 108 -10
c71 0 106 18 106 55c0 40 -38 59 -121 59h-66v71l43 107c-355 29 -574 312 -574 752c0 466 244 756 636 756c304 0 541 -191 584 -469z" />
    <glyph glyph-name="Ccedillaacute.mini" horiz-adv-x="1466" 
d="M1194 1875l-332 -298h-204l310 298h226zM1348 1008h-183c-48 186 -202 303 -401 303c-277 0 -451 -228 -451 -590s174 -589 452 -589c201 0 354 103 400 270h183c-44 -245 -242 -409 -514 -433l-36 -83c126 -5 194 -58 194 -150c0 -103 -94 -168 -245 -168
c-42 0 -86 5 -115 14v105c31 -7 68 -10 108 -10c71 0 106 18 106 55c0 40 -38 59 -121 59h-66v71l43 107c-355 29 -574 312 -574 752c0 466 244 756 636 756c304 0 541 -191 584 -469z" />
    <glyph glyph-name="D" unicode="D" horiz-adv-x="1487" 
d="M184 1443h495c428 0 681 -267 681 -721c0 -455 -252 -722 -681 -722h-495v1443zM364 1281v-1119h303c322 0 509 206 509 558c0 353 -189 561 -509 561h-303z" />
    <glyph glyph-name="Ddotaccent" unicode="&#x1e0a;" horiz-adv-x="1487" 
d="M184 1443h495c428 0 681 -267 681 -721c0 -455 -252 -722 -681 -722h-495v1443zM364 1281v-1119h303c322 0 509 206 509 558c0 353 -189 561 -509 561h-303zM594 1575c-67 0 -121 54 -121 121s54 121 121 121s121 -54 121 -121s-54 -121 -121 -121z" />
    <glyph glyph-name="Dcircumflexbelow" unicode="&#x1e12;" horiz-adv-x="1487" 
d="M184 1443h495c428 0 681 -267 681 -721c0 -455 -252 -722 -681 -722h-495v1443zM364 1281v-1119h303c322 0 509 206 509 558c0 353 -189 561 -509 561h-303zM512 -139h164l300 -298h-202l-172 177h-16l-172 -177h-202z" />
    <glyph glyph-name="Dcommaaccent" unicode="&#x1e10;" horiz-adv-x="1487" 
d="M184 1443h495c428 0 681 -267 681 -721c0 -455 -252 -722 -681 -722h-495v1443zM364 1281v-1119h303c322 0 509 206 509 558c0 353 -189 561 -509 561h-303zM597 -518h-167l102 377h182z" />
    <glyph glyph-name="Dlinebelow" unicode="&#x1e0e;" horiz-adv-x="1487" 
d="M184 1443h495c428 0 681 -267 681 -721c0 -455 -252 -722 -681 -722h-495v1443zM364 1281v-1119h303c322 0 509 206 509 558c0 353 -189 561 -509 561h-303zM931 -212v-136h-674v136h674z" />
    <glyph glyph-name="Dcaron" unicode="&#x10e;" horiz-adv-x="1487" 
d="M184 1443h495c428 0 681 -267 681 -721c0 -455 -252 -722 -681 -722h-495v1443zM364 1281v-1119h303c322 0 509 206 509 558c0 353 -189 561 -509 561h-303zM512 1575l-300 298h202l172 -177h16l172 177h202l-300 -298h-164z" />
    <glyph glyph-name="Ddotbelow" unicode="&#x1e0c;" horiz-adv-x="1487" 
d="M184 1443h495c428 0 681 -267 681 -721c0 -455 -252 -722 -681 -722h-495v1443zM364 1281v-1119h303c322 0 509 206 509 558c0 353 -189 561 -509 561h-303zM594 -402c-67 0 -121 54 -121 121s54 121 121 121s121 -54 121 -121s-54 -121 -121 -121z" />
    <glyph glyph-name="Dcroat" unicode="&#x110;" horiz-adv-x="1492" 
d="M369 162h303c322 0 509 206 509 558c0 353 -189 561 -509 561h-303v-455h243v-163h-243v-501zM189 1443h495c428 0 681 -267 681 -721c0 -455 -252 -722 -681 -722h-495v663h-163v163h163v617z" />
    <glyph glyph-name="Dcommaaccent.mini" horiz-adv-x="1487" 
d="M184 1443h495c428 0 681 -267 681 -721c0 -455 -252 -722 -681 -722h-495v1443zM364 1281v-1119h303c322 0 509 206 509 558c0 353 -189 561 -509 561h-303zM607 -432h-143l79 290h177z" />
    <glyph glyph-name="E" unicode="E" horiz-adv-x="1220" 
d="M1078 162v-162h-894v1443h894v-162h-714v-463h677v-160h-677v-496h714z" />
    <glyph glyph-name="Egrave" unicode="&#xc8;" horiz-adv-x="1220" 
d="M1078 162v-162h-894v1443h894v-162h-714v-463h677v-160h-677v-496h714zM525 1575l-332 298h226l310 -298h-204z" />
    <glyph glyph-name="Edblgrave" unicode="&#x204;" horiz-adv-x="1220" 
d="M1078 162v-162h-894v1443h894v-162h-714v-463h677v-160h-677v-496h714zM751 1575l-332 298h226l310 -298h-204zM337 1575l-332 298h226l310 -298h-204z" />
    <glyph glyph-name="Eacute" unicode="&#xc9;" horiz-adv-x="1220" 
d="M1078 162v-162h-894v1443h894v-162h-714v-463h677v-160h-677v-496h714zM729 1575h-204l310 298h226z" />
    <glyph glyph-name="Ecircumflex" unicode="&#xca;" horiz-adv-x="1220" 
d="M1078 162v-162h-894v1443h894v-162h-714v-463h677v-160h-677v-496h714zM549 1873h164l300 -298h-202l-172 177h-16l-172 -177h-202z" />
    <glyph glyph-name="Ecircumflexhookabove" unicode="&#x1ec2;" horiz-adv-x="1220" 
d="M1078 162v-162h-894v1443h894v-162h-714v-463h677v-160h-677v-496h714zM533 1808h196l294 -233h-222l-162 135h-16l-162 -135h-222zM743 1977v102c22 8 75 16 135 16c108 0 183 -64 183 -159c0 -77 -53 -151 -129 -175l-98 71c51 17 84 55 84 97c0 37 -34 64 -81 64
c-37 0 -74 -7 -94 -16z" />
    <glyph glyph-name="Ecircumflexgrave" unicode="&#x1ec0;" horiz-adv-x="1220" 
d="M1078 162v-162h-894v1443h894v-162h-714v-463h677v-160h-677v-496h714zM533 1808h196l294 -233h-222l-162 135h-16l-162 -135h-222zM1065 1853h-190l-246 242h216z" />
    <glyph glyph-name="Ecircumflextilde" unicode="&#x1ec4;" horiz-adv-x="1220" 
d="M1078 162v-162h-894v1443h894v-162h-714v-463h677v-160h-677v-496h714zM771 1854c-170 0 -168 128 -276 128c-57 0 -90 -38 -94 -111h-136c0 141 92 241 226 241c170 0 168 -128 276 -128c48 0 89 33 95 111h135c0 -133 -92 -241 -226 -241zM533 1808h196l294 -233h-222
l-162 135h-16l-162 -135h-222z" />
    <glyph glyph-name="Ecircumflexdotbelow" unicode="&#x1ec6;" horiz-adv-x="1220" 
d="M1078 162v-162h-894v1443h894v-162h-714v-463h677v-160h-677v-496h714zM549 1873h164l300 -298h-202l-172 177h-16l-172 -177h-202zM631 -402c-67 0 -121 54 -121 121s54 121 121 121s121 -54 121 -121s-54 -121 -121 -121z" />
    <glyph glyph-name="Ecircumflexacute" unicode="&#x1ebe;" horiz-adv-x="1220" 
d="M1078 162v-162h-894v1443h894v-162h-714v-463h677v-160h-677v-496h714zM533 1808h196l294 -233h-222l-162 135h-16l-162 -135h-222zM829 1853l220 242h216l-246 -242h-190z" />
    <glyph glyph-name="Edieresis" unicode="&#xcb;" horiz-adv-x="1220" 
d="M1078 162v-162h-894v1443h894v-162h-714v-463h677v-160h-677v-496h714zM429 1575c-67 0 -121 54 -121 121s54 121 121 121s121 -54 121 -121s-54 -121 -121 -121zM833 1575c-67 0 -121 54 -121 121s54 121 121 121s121 -54 121 -121s-54 -121 -121 -121z" />
    <glyph glyph-name="Edotbelow" unicode="&#x1eb8;" horiz-adv-x="1220" 
d="M1078 162v-162h-894v1443h894v-162h-714v-463h677v-160h-677v-496h714zM631 -402c-67 0 -121 54 -121 121s54 121 121 121s121 -54 121 -121s-54 -121 -121 -121z" />
    <glyph glyph-name="Einvertedbreve" unicode="&#x206;" horiz-adv-x="1220" 
d="M1078 162v-162h-894v1443h894v-162h-714v-463h677v-160h-677v-496h714zM267 1575c0 179 138 298 364 298s364 -119 364 -298h-154c0 105 -80 173 -210 173s-210 -68 -210 -173h-154z" />
    <glyph glyph-name="Ehookabove" unicode="&#x1eba;" horiz-adv-x="1220" 
d="M1078 162v-162h-894v1443h894v-162h-714v-463h677v-160h-677v-496h714zM456 1780v120c31 13 84 21 131 21c138 0 223 -69 223 -180c0 -91 -75 -179 -182 -214l-73 97c64 19 109 63 109 105s-42 73 -98 73c-44 0 -84 -8 -110 -22z" />
    <glyph glyph-name="Ecaron" unicode="&#x11a;" horiz-adv-x="1220" 
d="M1078 162v-162h-894v1443h894v-162h-714v-463h677v-160h-677v-496h714zM549 1575l-300 298h202l172 -177h16l172 177h202l-300 -298h-164z" />
    <glyph glyph-name="Emacron" unicode="&#x112;" horiz-adv-x="1220" 
d="M1078 162v-162h-894v1443h894v-162h-714v-463h677v-160h-677v-496h714zM968 1756v-136h-674v136h674z" />
    <glyph glyph-name="Emacrongrave" unicode="&#x1e14;" horiz-adv-x="1220" 
d="M1078 162v-162h-894v1443h894v-162h-714v-463h677v-160h-677v-496h714zM294 1620v130h674v-130h-674zM737 1873h-192l-246 222h218z" />
    <glyph glyph-name="Emacronacute" unicode="&#x1e16;" horiz-adv-x="1220" 
d="M1078 162v-162h-894v1443h894v-162h-714v-463h677v-160h-677v-496h714zM968 1619h-674v130h674v-130zM525 1872l220 222h218l-246 -222h-192z" />
    <glyph glyph-name="Etilde" unicode="&#x1ebc;" horiz-adv-x="1220" 
d="M1078 162v-162h-894v1443h894v-162h-714v-463h677v-160h-677v-496h714zM776 1580c-160 0 -204 157 -284 157c-70 0 -98 -44 -98 -157h-142c0 182 87 291 232 291c160 0 204 -157 284 -157c70 0 98 44 98 157h142c0 -182 -87 -291 -232 -291z" />
    <glyph glyph-name="Ecircumflexbelow" unicode="&#x1e18;" horiz-adv-x="1220" 
d="M1078 162v-162h-894v1443h894v-162h-714v-463h677v-160h-677v-496h714zM549 -139h164l300 -298h-202l-172 177h-16l-172 -177h-202z" />
    <glyph glyph-name="Ebreve" unicode="&#x114;" horiz-adv-x="1220" 
d="M1078 162v-162h-894v1443h894v-162h-714v-463h677v-160h-677v-496h714zM267 1873h154c0 -105 80 -173 210 -173s210 68 210 173h154c0 -179 -138 -298 -364 -298s-364 119 -364 298z" />
    <glyph glyph-name="Etildebelow" unicode="&#x1e1a;" horiz-adv-x="1220" 
d="M1078 162v-162h-894v1443h894v-162h-714v-463h677v-160h-677v-496h714zM776 -419c-160 0 -204 157 -284 157c-70 0 -98 -44 -98 -157h-142c0 182 87 291 232 291c160 0 204 -157 284 -157c70 0 98 44 98 157h142c0 -182 -87 -291 -232 -291z" />
    <glyph glyph-name="Edotaccent" unicode="&#x116;" horiz-adv-x="1220" 
d="M1078 162v-162h-894v1443h894v-162h-714v-463h677v-160h-677v-496h714zM631 1575c-67 0 -121 54 -121 121s54 121 121 121s121 -54 121 -121s-54 -121 -121 -121z" />
    <glyph glyph-name="Ecedilla" unicode="&#x228;" horiz-adv-x="1220" 
d="M1078 1281h-714v-463h677v-160h-677v-496h714v-162h-372l-51 -132c136 0 215 -60 215 -163c0 -111 -91 -189 -244 -189c-59 0 -105 6 -146 18v108c24 -7 86 -14 122 -14c77 0 119 26 119 73c0 46 -43 65 -149 65h-59v84l61 150h-390v1443h894v-162z" />
    <glyph glyph-name="Ecedillabreve" unicode="&#x1e1c;" horiz-adv-x="1220" 
d="M841 1873h154c0 -179 -138 -298 -364 -298s-364 119 -364 298h154c0 -105 80 -173 210 -173s210 68 210 173zM1078 1281h-714v-463h677v-160h-677v-496h714v-162h-372l-51 -132c136 0 215 -60 215 -163c0 -111 -91 -189 -244 -189c-59 0 -105 6 -146 18v108
c24 -7 86 -14 122 -14c77 0 119 26 119 73c0 46 -43 65 -149 65h-59v84l61 150h-390v1443h894v-162z" />
    <glyph glyph-name="Eogonek" unicode="&#x118;" horiz-adv-x="1220" 
d="M184 0v1443h894v-162h-714v-463h677v-160h-677v-496h714v-150l-42 -16c-94 -36 -184 -99 -184 -186c0 -65 55 -98 112 -98c32 0 54 3 66 6v-134c-23 -8 -56 -16 -104 -16c-148 0 -243 90 -243 204c0 92 58 168 141 212v16h-640z" />
    <glyph glyph-name="Eogonek.mini" horiz-adv-x="1220" 
d="M824 0h-640v1443h894v-162h-714v-463h677v-160h-677v-496h714v-150l-42 -16c-94 -36 -184 -99 -184 -186c0 -65 55 -98 112 -98c32 0 54 3 66 6v-134c-23 -8 -56 -16 -104 -16c-148 0 -243 90 -243 204c0 92 58 168 141 212v16z" />
    <glyph glyph-name="Ecedillabreve.mini" horiz-adv-x="1220" 
d="M841 1873h154c0 -179 -138 -298 -364 -298s-364 119 -364 298h154c0 -105 80 -173 210 -173s210 68 210 173zM1078 1281h-714v-463h677v-160h-677v-496h714v-162h-363l-50 -114c126 -5 194 -58 194 -150c0 -103 -94 -168 -245 -168c-42 0 -86 5 -115 14v105
c31 -7 68 -10 108 -10c71 0 106 18 106 55c0 40 -38 59 -121 59h-66v71l56 138h-398v1443h894v-162z" />
    <glyph glyph-name="Ecedilla.mini" horiz-adv-x="1220" 
d="M1078 1281h-714v-463h677v-160h-677v-496h714v-162h-363l-50 -114c126 -5 194 -58 194 -150c0 -103 -94 -168 -245 -168c-42 0 -86 5 -115 14v105c31 -7 68 -10 108 -10c71 0 106 18 106 55c0 40 -38 59 -121 59h-66v71l56 138h-398v1443h894v-162z" />
    <glyph glyph-name="E.mini" horiz-adv-x="1220" 
d="M1078 162v-162h-894v1313h894v-162h-714v-398h677v-160h-677v-431h714z" />
    <glyph glyph-name="Emacronacute.mini" horiz-adv-x="1220" 
d="M1078 162v-162h-894v1313h894v-162h-714v-398h677v-160h-677v-431h714zM968 1490h-674v130h674v-130zM525 1743l190 207h214l-214 -207h-190z" />
    <glyph glyph-name="Ecircumflexhookabove.mini" horiz-adv-x="1220" 
d="M1078 162v-162h-894v1313h894v-162h-714v-398h677v-160h-677v-431h714zM729 1678l294 -233h-222l-162 135h-16l-162 -135h-222l294 233h196zM743 1832v102c22 8 75 16 135 16c108 0 183 -64 183 -159c0 -77 -52 -151 -128 -175l-96 69c51 17 81 57 81 99
c0 37 -34 64 -81 64c-37 0 -74 -7 -94 -16z" />
    <glyph glyph-name="Emacrongrave.mini" horiz-adv-x="1220" 
d="M1078 162v-162h-894v1313h894v-162h-714v-398h677v-160h-677v-431h714zM968 1490h-674v130h674v-130zM737 1743h-190l-214 207h214z" />
    <glyph glyph-name="Ecircumflexacute.mini" horiz-adv-x="1220" 
d="M1078 162v-162h-894v1313h894v-162h-714v-398h677v-160h-677v-431h714zM729 1678l294 -233h-222l-162 135h-16l-162 -135h-222l294 233h196zM829 1723l190 227h216l-216 -227h-190z" />
    <glyph glyph-name="Ecircumflexgrave.mini" horiz-adv-x="1220" 
d="M1078 162v-162h-894v1313h894v-162h-714v-398h677v-160h-677v-431h714zM729 1678l294 -233h-222l-162 135h-16l-162 -135h-222l294 233h196zM1055 1723h-190l-216 227h216z" />
    <glyph glyph-name="Ecircumflextilde.mini" horiz-adv-x="1220" 
d="M1078 162v-162h-894v1313h894v-162h-714v-398h677v-160h-677v-431h714zM729 1678l294 -233h-222l-162 135h-16l-162 -135h-222l294 233h196zM783 1722c-166 0 -179 102 -287 102c-57 0 -91 -32 -95 -81h-134c0 123 78 207 210 207c170 0 187 -102 289 -102
c60 0 89 27 95 95h134c0 -133 -78 -221 -212 -221z" />
    <glyph glyph-name="F" unicode="F" horiz-adv-x="1172" 
d="M364 0h-180v1443h876v-162h-696v-496h639v-160h-639v-625z" />
    <glyph glyph-name="Fdotaccent" unicode="&#x1e1e;" horiz-adv-x="1172" 
d="M364 0h-180v1443h876v-162h-696v-496h639v-160h-639v-625zM622 1575c-67 0 -121 54 -121 121s54 121 121 121s121 -54 121 -121s-54 -121 -121 -121z" />
    <glyph glyph-name="G" unicode="G" horiz-adv-x="1529" 
d="M1395 558c0 -356 -244 -592 -613 -592c-399 0 -654 294 -654 756c0 456 259 755 654 755c320 0 552 -178 604 -464h-183c-62 195 -207 298 -421 298c-286 0 -469 -230 -469 -589c0 -364 180 -590 470 -590c258 0 433 165 433 409v35h-406v158h585v-176z" />
    <glyph glyph-name="Gacute" unicode="&#x1f4;" horiz-adv-x="1529" 
d="M1395 558c0 -356 -244 -592 -613 -592c-399 0 -654 294 -654 756c0 456 259 755 654 755c320 0 552 -178 604 -464h-183c-62 195 -207 298 -421 298c-286 0 -469 -230 -469 -589c0 -364 180 -590 470 -590c258 0 433 165 433 409v35h-406v158h585v-176zM880 1575h-204
l310 298h226z" />
    <glyph glyph-name="Gcaron" unicode="&#x1e6;" horiz-adv-x="1529" 
d="M1395 558c0 -356 -244 -592 -613 -592c-399 0 -654 294 -654 756c0 456 259 755 654 755c320 0 552 -178 604 -464h-183c-62 195 -207 298 -421 298c-286 0 -469 -230 -469 -589c0 -364 180 -590 470 -590c258 0 433 165 433 409v35h-406v158h585v-176zM700 1575
l-300 298h202l172 -177h16l172 177h202l-300 -298h-164z" />
    <glyph glyph-name="Gcircumflex" unicode="&#x11c;" horiz-adv-x="1529" 
d="M1395 558c0 -356 -244 -592 -613 -592c-399 0 -654 294 -654 756c0 456 259 755 654 755c320 0 552 -178 604 -464h-183c-62 195 -207 298 -421 298c-286 0 -469 -230 -469 -589c0 -364 180 -590 470 -590c258 0 433 165 433 409v35h-406v158h585v-176zM700 1873h164
l300 -298h-202l-172 177h-16l-172 -177h-202z" />
    <glyph glyph-name="Gbreve" unicode="&#x11e;" horiz-adv-x="1529" 
d="M1395 558c0 -356 -244 -592 -613 -592c-399 0 -654 294 -654 756c0 456 259 755 654 755c320 0 552 -178 604 -464h-183c-62 195 -207 298 -421 298c-286 0 -469 -230 -469 -589c0 -364 180 -590 470 -590c258 0 433 165 433 409v35h-406v158h585v-176zM418 1873h154
c0 -105 80 -173 210 -173s210 68 210 173h154c0 -179 -138 -298 -364 -298s-364 119 -364 298z" />
    <glyph glyph-name="Gmacron" unicode="&#x1e20;" horiz-adv-x="1529" 
d="M1395 558c0 -356 -244 -592 -613 -592c-399 0 -654 294 -654 756c0 456 259 755 654 755c320 0 552 -178 604 -464h-183c-62 195 -207 298 -421 298c-286 0 -469 -230 -469 -589c0 -364 180 -590 470 -590c258 0 433 165 433 409v35h-406v158h585v-176zM1119 1756v-136
h-674v136h674z" />
    <glyph glyph-name="Gdotaccent" unicode="&#x120;" horiz-adv-x="1529" 
d="M1395 558c0 -356 -244 -592 -613 -592c-399 0 -654 294 -654 756c0 456 259 755 654 755c320 0 552 -178 604 -464h-183c-62 195 -207 298 -421 298c-286 0 -469 -230 -469 -589c0 -364 180 -590 470 -590c258 0 433 165 433 409v35h-406v158h585v-176zM782 1575
c-67 0 -121 54 -121 121s54 121 121 121s121 -54 121 -121s-54 -121 -121 -121z" />
    <glyph glyph-name="Gcommaaccent" unicode="&#x122;" horiz-adv-x="1529" 
d="M1395 558c0 -356 -244 -592 -613 -592c-399 0 -654 294 -654 756c0 456 259 755 654 755c320 0 552 -178 604 -464h-183c-62 195 -207 298 -421 298c-286 0 -469 -230 -469 -589c0 -364 180 -590 470 -590c258 0 433 165 433 409v35h-406v158h585v-176zM785 -518h-167
l102 377h182z" />
    <glyph glyph-name="Gcommaaccent.mini" horiz-adv-x="1529" 
d="M1395 558c0 -356 -244 -592 -613 -592c-399 0 -654 294 -654 756c0 456 259 755 654 755c320 0 552 -178 604 -464h-183c-62 195 -207 298 -421 298c-286 0 -469 -230 -469 -589c0 -364 180 -590 470 -590c258 0 433 165 433 409v35h-406v158h585v-176zM795 -432h-143
l79 290h177z" />
    <glyph glyph-name="H" unicode="H" horiz-adv-x="1520" 
d="M1336 0h-180v657h-792v-657h-180v1443h180v-624h792v624h180v-1443z" />
    <glyph glyph-name="Hdieresis" unicode="&#x1e26;" horiz-adv-x="1520" 
d="M1336 0h-180v657h-792v-657h-180v1443h180v-624h792v624h180v-1443zM558 1575c-67 0 -121 54 -121 121s54 121 121 121s121 -54 121 -121s-54 -121 -121 -121zM962 1575c-67 0 -121 54 -121 121s54 121 121 121s121 -54 121 -121s-54 -121 -121 -121z" />
    <glyph glyph-name="Hcaron" unicode="&#x21e;" horiz-adv-x="1520" 
d="M1336 0h-180v657h-792v-657h-180v1443h180v-624h792v624h180v-1443zM678 1575l-300 298h202l172 -177h16l172 177h202l-300 -298h-164z" />
    <glyph glyph-name="Hcircumflex" unicode="&#x124;" horiz-adv-x="1520" 
d="M1336 0h-180v657h-792v-657h-180v1443h180v-624h792v624h180v-1443zM678 1873h164l300 -298h-202l-172 177h-16l-172 -177h-202z" />
    <glyph glyph-name="Hdotbelow" unicode="&#x1e24;" horiz-adv-x="1520" 
d="M1336 0h-180v657h-792v-657h-180v1443h180v-624h792v624h180v-1443zM760 -402c-67 0 -121 54 -121 121s54 121 121 121s121 -54 121 -121s-54 -121 -121 -121z" />
    <glyph glyph-name="Hdotaccent" unicode="&#x1e22;" horiz-adv-x="1520" 
d="M1336 0h-180v657h-792v-657h-180v1443h180v-624h792v624h180v-1443zM760 1575c-67 0 -121 54 -121 121s54 121 121 121s121 -54 121 -121s-54 -121 -121 -121z" />
    <glyph glyph-name="Hbrevebelow" unicode="&#x1e2a;" horiz-adv-x="1520" 
d="M1336 0h-180v657h-792v-657h-180v1443h180v-624h792v624h180v-1443zM396 -126h154c0 -105 80 -173 210 -173s210 68 210 173h154c0 -179 -138 -298 -364 -298s-364 119 -364 298z" />
    <glyph glyph-name="Hcedilla" unicode="&#x1e28;" horiz-adv-x="1520" 
d="M1156 1443h180v-1443h-180v657h-792v-635v-22l-51 -132c136 0 215 -60 215 -163c0 -111 -91 -189 -244 -189c-59 0 -105 6 -146 18v108c24 -7 86 -14 122 -14c77 0 119 26 119 73c0 46 -43 65 -149 65h-59v84l61 150h-48v1443h180v-624h792v624z" />
    <glyph glyph-name="Hbar" unicode="&#x126;" horiz-adv-x="1520" 
d="M1156 819v256h-792v-256h792zM1472 1218v-143h-136v-1075h-180v657h-792v-657h-180v1075h-136v143h136v225h180v-225h792v225h180v-225h136z" />
    <glyph glyph-name="Hcedilla.mini" horiz-adv-x="1520" 
d="M184 0v1443h180v-624h792v624h180v-1443h-180v657h-792v-625l-64 -146c126 -5 194 -58 194 -150c0 -103 -94 -168 -245 -168c-42 0 -86 5 -115 14v105c31 -7 68 -10 108 -10c71 0 106 18 106 55c0 40 -38 59 -121 59h-66v71l62 138h-39z" />
    <glyph glyph-name="I" unicode="I" horiz-adv-x="548" 
d="M364 0h-180v1443h180v-1443z" />
    <glyph glyph-name="Idotaccent" unicode="&#x130;" horiz-adv-x="548" 
d="M364 0h-180v1443h180v-1443zM274 1575c-67 0 -121 54 -121 121s54 121 121 121s121 -54 121 -121s-54 -121 -121 -121z" />
    <glyph glyph-name="Igrave" unicode="&#xcc;" horiz-adv-x="548" 
d="M364 0h-180v1443h180v-1443zM168 1575l-332 298h226l310 -298h-204z" />
    <glyph glyph-name="Idblgrave" unicode="&#x208;" horiz-adv-x="548" 
d="M364 0h-180v1443h180v-1443zM394 1575l-332 298h226l310 -298h-204zM-20 1575l-332 298h226l310 -298h-204z" />
    <glyph glyph-name="Iacute" unicode="&#xcd;" horiz-adv-x="548" 
d="M364 0h-180v1443h180v-1443zM372 1575h-204l310 298h226z" />
    <glyph glyph-name="Icircumflex" unicode="&#xce;" horiz-adv-x="548" 
d="M364 0h-180v1443h180v-1443zM192 1873h164l300 -298h-202l-172 177h-16l-172 -177h-202z" />
    <glyph glyph-name="Icaron" unicode="&#x1cf;" horiz-adv-x="548" 
d="M364 0h-180v1443h180v-1443zM192 1575l-300 298h202l172 -177h16l172 177h202l-300 -298h-164z" />
    <glyph glyph-name="Idieresis" unicode="&#xcf;" horiz-adv-x="548" 
d="M364 0h-180v1443h180v-1443zM72 1575c-67 0 -121 54 -121 121s54 121 121 121s121 -54 121 -121s-54 -121 -121 -121zM476 1575c-67 0 -121 54 -121 121s54 121 121 121s121 -54 121 -121s-54 -121 -121 -121z" />
    <glyph glyph-name="Idieresisacute" unicode="&#x1e2e;" horiz-adv-x="548" 
d="M364 0h-180v1443h180v-1443zM186 1873l230 222h227l-281 -222h-176zM72 1575c-67 0 -121 54 -121 121s54 121 121 121s121 -54 121 -121s-54 -121 -121 -121zM476 1575c-67 0 -121 54 -121 121s54 121 121 121s121 -54 121 -121s-54 -121 -121 -121z" />
    <glyph glyph-name="Ibreve" unicode="&#x12c;" horiz-adv-x="548" 
d="M364 0h-180v1443h180v-1443zM-90 1873h154c0 -105 80 -173 210 -173s210 68 210 173h154c0 -179 -138 -298 -364 -298s-364 119 -364 298z" />
    <glyph glyph-name="Idotbelow" unicode="&#x1eca;" horiz-adv-x="548" 
d="M364 0h-180v1443h180v-1443zM274 -402c-67 0 -121 54 -121 121s54 121 121 121s121 -54 121 -121s-54 -121 -121 -121z" />
    <glyph glyph-name="Iinvertedbreve" unicode="&#x20a;" horiz-adv-x="548" 
d="M364 0h-180v1443h180v-1443zM-90 1575c0 179 138 298 364 298s364 -119 364 -298h-154c0 105 -80 173 -210 173s-210 -68 -210 -173h-154z" />
    <glyph glyph-name="Imacron" unicode="&#x12a;" horiz-adv-x="548" 
d="M364 0h-180v1443h180v-1443zM611 1756v-136h-674v136h674z" />
    <glyph glyph-name="Itildebelow" unicode="&#x1e2c;" horiz-adv-x="548" 
d="M364 0h-180v1443h180v-1443zM419 -419c-160 0 -204 157 -284 157c-70 0 -98 -44 -98 -157h-142c0 182 87 291 232 291c160 0 204 -157 284 -157c70 0 98 44 98 157h142c0 -182 -87 -291 -232 -291z" />
    <glyph glyph-name="Ihookabove" unicode="&#x1ec8;" horiz-adv-x="548" 
d="M364 0h-180v1443h180v-1443zM99 1780v120c31 13 84 21 131 21c138 0 223 -69 223 -180c0 -91 -75 -179 -182 -214l-73 97c64 19 109 63 109 105s-42 73 -98 73c-44 0 -84 -8 -110 -22z" />
    <glyph glyph-name="Itilde" unicode="&#x128;" horiz-adv-x="548" 
d="M364 0h-180v1443h180v-1443zM419 1580c-160 0 -204 157 -284 157c-70 0 -98 -44 -98 -157h-142c0 182 87 291 232 291c160 0 204 -157 284 -157c70 0 98 44 98 157h142c0 -182 -87 -291 -232 -291z" />
    <glyph glyph-name="Iogonek" unicode="&#x12e;" horiz-adv-x="548" 
d="M184 0v1443h180v-1443l-5 -3c-97 -58 -147 -121 -147 -187c0 -57 46 -98 112 -98c27 0 51 2 66 6v-134c-31 -11 -65 -16 -104 -16c-142 0 -243 85 -243 204c0 91 50 173 141 228z" />
    <glyph glyph-name="Iogonek.mini" horiz-adv-x="548" 
d="M184 1443h180v-1443l-5 -3c-97 -58 -147 -121 -147 -187c0 -57 46 -98 112 -98c27 0 51 2 66 6v-134c-31 -11 -65 -16 -104 -16c-142 0 -243 85 -243 204c0 91 50 173 141 228v1443z" />
    <glyph glyph-name="I.mini" horiz-adv-x="548" 
d="M364 0h-180v1313h180v-1313z" />
    <glyph glyph-name="Idieresisacute.mini" horiz-adv-x="548" 
d="M364 0h-180v1313h180v-1313zM72 1445c-67 0 -121 54 -121 121s54 121 121 121s121 -54 121 -121s-54 -121 -121 -121zM476 1445c-67 0 -121 54 -121 121s54 121 121 121s121 -54 121 -121s-54 -121 -121 -121zM168 1743l190 207h214l-214 -207h-190z" />
    <glyph glyph-name="I.1" horiz-adv-x="992" 
d="M862 1289h-276v-1135h276v-154h-276h-180h-276v154h276v1135h-276v154h276h180h276v-154z" />
    <glyph glyph-name="Idotaccent.1" horiz-adv-x="992" 
d="M496 1575c-67 0 -121 54 -121 121s54 121 121 121s121 -54 121 -121s-54 -121 -121 -121zM862 1289h-276v-1135h276v-154h-276h-180h-276v154h276v1135h-276v154h276h180h276v-154z" />
    <glyph glyph-name="Igrave.1" horiz-adv-x="992" 
d="M598 1575h-204l-332 298h226zM862 1289h-276v-1135h276v-154h-276h-180h-276v154h276v1135h-276v154h276h180h276v-154z" />
    <glyph glyph-name="Idblgrave.1" horiz-adv-x="992" 
d="M818 1575h-204l-332 298h226zM404 1575h-204l-332 298h226zM862 1289h-276v-1135h276v-154h-276h-180h-276v154h276v1135h-276v154h276h180h276v-154z" />
    <glyph glyph-name="Iacute.1" horiz-adv-x="992" 
d="M913 1873l-332 -298h-204l310 298h226zM406 1443h180h276v-154h-276v-1135h276v-154h-276h-180h-276v154h276v1135h-276v154h276z" />
    <glyph glyph-name="Icircumflex.1" horiz-adv-x="992" 
d="M488 1752l-172 -177h-202l300 298h164l300 -298h-202l-172 177h-16zM406 1443h180h276v-154h-276v-1135h276v-154h-276h-180h-276v154h276v1135h-276v154h276z" />
    <glyph glyph-name="Icaron.1" horiz-adv-x="992" 
d="M578 1575h-164l-300 298h202l172 -177h16l172 177h202zM406 1443h180h276v-154h-276v-1135h276v-154h-276h-180h-276v154h276v1135h-276v154h276z" />
    <glyph glyph-name="Idieresis.1" horiz-adv-x="992" 
d="M698 1575c-67 0 -121 54 -121 121s54 121 121 121s121 -54 121 -121s-54 -121 -121 -121zM294 1575c-67 0 -121 54 -121 121s54 121 121 121s121 -54 121 -121s-54 -121 -121 -121zM862 1289h-276v-1135h276v-154h-276h-180h-276v154h276v1135h-276v154h276h180h276v-154
z" />
    <glyph glyph-name="Idieresisacute.1" horiz-adv-x="992" 
d="M866 2095l-281 -222h-176l230 222h227zM578 1696c0 67 54 121 121 121s121 -54 121 -121s-54 -121 -121 -121s-121 54 -121 121zM295 1575c-67 0 -121 54 -121 121s54 121 121 121s121 -54 121 -121s-54 -121 -121 -121zM406 1443h180h276v-154h-276v-1135h276v-154h-276
h-180h-276v154h276v1135h-276v154h276z" />
    <glyph glyph-name="Ibreve.1" horiz-adv-x="992" 
d="M706 1873h154c0 -179 -138 -298 -364 -298s-364 119 -364 298h154c0 -105 80 -173 210 -173s210 68 210 173zM862 1289h-276v-1135h276v-154h-276h-180h-276v154h276v1135h-276v154h276h180h276v-154z" />
    <glyph glyph-name="Idotbelow.1" horiz-adv-x="992" 
d="M496 -160c67 0 121 -54 121 -121s-54 -121 -121 -121s-121 54 -121 121s54 121 121 121zM862 1289h-276v-1135h276v-154h-276h-180h-276v154h276v1135h-276v154h276h180h276v-154z" />
    <glyph glyph-name="Iinvertedbreve.1" horiz-adv-x="992" 
d="M860 1575h-154c0 105 -80 173 -210 173s-210 -68 -210 -173h-154c0 179 138 298 364 298s364 -119 364 -298zM862 1289h-276v-1135h276v-154h-276h-180h-276v154h276v1135h-276v154h276h180h276v-154z" />
    <glyph glyph-name="Imacron.1" horiz-adv-x="992" 
d="M833 1756v-136h-674v136h674zM862 1289h-276v-1135h276v-154h-276h-180h-276v154h276v1135h-276v154h276h180h276v-154z" />
    <glyph glyph-name="Itildebelow.1" horiz-adv-x="992" 
d="M586 0h-180h-276v154h276v1135h-276v154h276h180h276v-154h-276v-1135h276v-154h-276zM728 -128h142c0 -182 -87 -291 -232 -291c-160 0 -204 157 -284 157c-70 0 -98 -44 -98 -157h-142c0 182 87 291 232 291c160 0 204 -157 284 -157c70 0 98 44 98 157z" />
    <glyph glyph-name="Ihookabove.1" horiz-adv-x="992" 
d="M509 1527l-73 97c64 19 109 63 109 105s-42 73 -98 73c-44 0 -84 -8 -110 -22v120c31 13 84 21 131 21c138 0 223 -69 223 -180c0 -91 -75 -179 -182 -214zM862 1289h-276v-1135h276v-154h-276h-180h-276v154h276v1135h-276v154h276h180h276v-154z" />
    <glyph glyph-name="Itilde.1" horiz-adv-x="992" 
d="M743 1871h142c0 -182 -87 -291 -232 -291c-160 0 -204 157 -284 157c-70 0 -98 -44 -98 -157h-142c0 182 87 291 232 291c160 0 204 -157 284 -157c70 0 98 44 98 157zM406 1443h180h276v-154h-276v-1135h276v-154h-276h-180h-276v154h276v1135h-276v154h276z" />
    <glyph glyph-name="Iogonek.1" horiz-adv-x="992" 
d="M710 -432c-148 0 -243 90 -243 204c0 92 58 168 141 212v16h-478v154h276v1135h-276v154h732v-154h-276v-1135h276v-142l-42 -16c-94 -36 -184 -99 -184 -186c0 -65 55 -98 112 -98c32 0 54 3 66 6v-134c-23 -8 -56 -16 -104 -16z" />
    <glyph glyph-name="Iogonek.mini.1" horiz-adv-x="992" 
d="M608 0h-478v154h276v1135h-276v154h732v-154h-276v-1135h276v-142l-42 -16c-94 -36 -184 -99 -184 -186c0 -65 55 -98 112 -98c32 0 54 3 66 6v-134c-23 -8 -56 -16 -104 -16c-148 0 -243 90 -243 204c0 92 58 168 141 212v16z" />
    <glyph glyph-name="I.mini.1" horiz-adv-x="992" 
d="M862 1159h-276v-1005h276v-154h-276h-180h-276v154h276v1005h-276v154h276h180h276v-154z" />
    <glyph glyph-name="Idieresisacute.mini.1" horiz-adv-x="992" 
d="M794 1950l-214 -207h-190l190 207h214zM698 1687c67 0 121 -54 121 -121s-54 -121 -121 -121s-121 54 -121 121s54 121 121 121zM294 1445c-67 0 -121 54 -121 121s54 121 121 121s121 -54 121 -121s-54 -121 -121 -121zM862 1159h-276v-1005h276v-154h-276h-180h-276
v154h276v1005h-276v154h276h180h276v-154z" />
    <glyph glyph-name="J" unicode="J" horiz-adv-x="1102" 
d="M86 337h179c4 -121 96 -205 232 -205c154 0 241 94 241 271v1040h180v-1041c0 -275 -159 -436 -420 -436c-242 0 -412 150 -412 371z" />
    <glyph glyph-name="Jcircumflex" unicode="&#x134;" horiz-adv-x="1102" 
d="M86 337h179c4 -121 96 -205 232 -205c154 0 241 94 241 271v1040h180v-1041c0 -275 -159 -436 -420 -436c-242 0 -412 150 -412 371zM746 1873h164l300 -298h-202l-172 177h-16l-172 -177h-202z" />
    <glyph glyph-name="K" unicode="K" horiz-adv-x="1349" 
d="M364 0h-180v1443h180v-701h16l632 701h226l-577 -623l630 -820h-233l-521 695l-173 -191v-504z" />
    <glyph glyph-name="Kacute" unicode="&#x1e30;" horiz-adv-x="1349" 
d="M364 0h-180v1443h180v-701h16l632 701h226l-577 -623l630 -820h-233l-521 695l-173 -191v-504zM751 1575h-204l310 298h226z" />
    <glyph glyph-name="Kcaron" unicode="&#x1e8;" horiz-adv-x="1349" 
d="M364 0h-180v1443h180v-701h16l632 701h226l-577 -623l630 -820h-233l-521 695l-173 -191v-504zM571 1575l-300 298h202l172 -177h16l172 177h202l-300 -298h-164z" />
    <glyph glyph-name="Kdotbelow" unicode="&#x1e32;" horiz-adv-x="1349" 
d="M364 0h-180v1443h180v-701h16l632 701h226l-577 -623l630 -820h-233l-521 695l-173 -191v-504zM653 -402c-67 0 -121 54 -121 121s54 121 121 121s121 -54 121 -121s-54 -121 -121 -121z" />
    <glyph glyph-name="Klinebelow" unicode="&#x1e34;" horiz-adv-x="1349" 
d="M364 0h-180v1443h180v-701h16l632 701h226l-577 -623l630 -820h-233l-521 695l-173 -191v-504zM990 -212v-136h-674v136h674z" />
    <glyph glyph-name="Kcommaaccent" unicode="&#x136;" horiz-adv-x="1349" 
d="M364 0h-180v1443h180v-701h16l632 701h226l-577 -623l630 -820h-233l-521 695l-173 -191v-504zM656 -518h-167l102 377h182z" />
    <glyph glyph-name="Kcommaaccent.mini" horiz-adv-x="1349" 
d="M364 0h-180v1443h180v-701h16l632 701h226l-577 -623l630 -820h-233l-521 695l-173 -191v-504zM666 -432h-143l79 290h177z" />
    <glyph glyph-name="L" unicode="L" horiz-adv-x="1163" 
d="M1060 162v-162h-876v1443h180v-1281h696z" />
    <glyph glyph-name="Lacute" unicode="&#x139;" horiz-adv-x="1163" 
d="M1060 162v-162h-876v1443h180v-1281h696zM372 1575h-204l310 298h226z" />
    <glyph glyph-name="Lcircumflexbelow" unicode="&#x1e3c;" horiz-adv-x="1163" 
d="M1060 162v-162h-876v1443h180v-1281h696zM540 -139h164l300 -298h-202l-172 177h-16l-172 -177h-202z" />
    <glyph glyph-name="Ldotbelow" unicode="&#x1e36;" horiz-adv-x="1163" 
d="M1060 162v-162h-876v1443h180v-1281h696zM622 -402c-67 0 -121 54 -121 121s54 121 121 121s121 -54 121 -121s-54 -121 -121 -121z" />
    <glyph glyph-name="Ldotbelowmacron" unicode="&#x1e38;" horiz-adv-x="1163" 
d="M1060 162v-162h-876v1443h180v-1281h696zM622 -402c-67 0 -121 54 -121 121s54 121 121 121s121 -54 121 -121s-54 -121 -121 -121zM611 1756v-136h-674v136h674z" />
    <glyph glyph-name="Llinebelow" unicode="&#x1e3a;" horiz-adv-x="1163" 
d="M1060 162v-162h-876v1443h180v-1281h696zM959 -212v-136h-674v136h674z" />
    <glyph glyph-name="Lcommaaccent" unicode="&#x13b;" horiz-adv-x="1163" 
d="M1060 162v-162h-876v1443h180v-1281h696zM625 -518h-167l102 377h182z" />
    <glyph glyph-name="Lcaron" unicode="&#x13d;" horiz-adv-x="1163" 
d="M589 1443h170l-50 -488h-120v488zM1060 162v-162h-876v1443h180v-1281h696z" />
    <glyph glyph-name="Lslash" unicode="&#x141;" horiz-adv-x="1163" 
d="M364 162h696v-162h-876v719l-166 -76v143l166 76v581h180v-499l292 133v-143l-292 -133v-639z" />
    <glyph glyph-name="Lcommaaccent.mini" horiz-adv-x="1163" 
d="M1060 162v-162h-876v1443h180v-1281h696zM635 -432h-143l79 290h177z" />
    <glyph glyph-name="M" unicode="M" horiz-adv-x="1790" 
d="M1606 0h-168v1102h-12l-455 -1092h-152l-455 1092h-12v-1102h-168v1443h209l494 -1194h16l494 1194h209v-1443z" />
    <glyph glyph-name="Macute" unicode="&#x1e3e;" horiz-adv-x="1790" 
d="M1606 0h-168v1102h-12l-455 -1092h-152l-455 1092h-12v-1102h-168v1443h209l494 -1194h16l494 1194h209v-1443zM993 1575h-204l310 298h226z" />
    <glyph glyph-name="Mdotaccent" unicode="&#x1e40;" horiz-adv-x="1790" 
d="M1606 0h-168v1102h-12l-455 -1092h-152l-455 1092h-12v-1102h-168v1443h209l494 -1194h16l494 1194h209v-1443zM895 1575c-67 0 -121 54 -121 121s54 121 121 121s121 -54 121 -121s-54 -121 -121 -121z" />
    <glyph glyph-name="Mdotbelow" unicode="&#x1e42;" horiz-adv-x="1790" 
d="M1606 0h-168v1102h-12l-455 -1092h-152l-455 1092h-12v-1102h-168v1443h209l494 -1194h16l494 1194h209v-1443zM895 -402c-67 0 -121 54 -121 121s54 121 121 121s121 -54 121 -121s-54 -121 -121 -121z" />
    <glyph glyph-name="N" unicode="N" horiz-adv-x="1520" 
d="M362 0h-178v1443h175l783 -1123h16v1123h178v-1443h-175l-783 1119h-16v-1119z" />
    <glyph glyph-name="Ngrave" unicode="&#x1f8;" horiz-adv-x="1520" 
d="M362 0h-178v1443h175l783 -1123h16v1123h178v-1443h-175l-783 1119h-16v-1119zM654 1575l-332 298h226l310 -298h-204z" />
    <glyph glyph-name="Nacute" unicode="&#x143;" horiz-adv-x="1520" 
d="M362 0h-178v1443h175l783 -1123h16v1123h178v-1443h-175l-783 1119h-16v-1119zM858 1575h-204l310 298h226z" />
    <glyph glyph-name="Ntilde" unicode="&#xd1;" horiz-adv-x="1520" 
d="M362 0h-178v1443h175l783 -1123h16v1123h178v-1443h-175l-783 1119h-16v-1119zM905 1580c-160 0 -204 157 -284 157c-70 0 -98 -44 -98 -157h-142c0 182 87 291 232 291c160 0 204 -157 284 -157c70 0 98 44 98 157h142c0 -182 -87 -291 -232 -291z" />
    <glyph glyph-name="Ndotbelow" unicode="&#x1e46;" horiz-adv-x="1520" 
d="M362 0h-178v1443h175l783 -1123h16v1123h178v-1443h-175l-783 1119h-16v-1119zM760 -402c-67 0 -121 54 -121 121s54 121 121 121s121 -54 121 -121s-54 -121 -121 -121z" />
    <glyph glyph-name="Ndotaccent" unicode="&#x1e44;" horiz-adv-x="1520" 
d="M362 0h-178v1443h175l783 -1123h16v1123h178v-1443h-175l-783 1119h-16v-1119zM760 1575c-67 0 -121 54 -121 121s54 121 121 121s121 -54 121 -121s-54 -121 -121 -121z" />
    <glyph glyph-name="Ncaron" unicode="&#x147;" horiz-adv-x="1520" 
d="M362 0h-178v1443h175l783 -1123h16v1123h178v-1443h-175l-783 1119h-16v-1119zM678 1575l-300 298h202l172 -177h16l172 177h202l-300 -298h-164z" />
    <glyph glyph-name="Ncircumflexbelow" unicode="&#x1e4a;" horiz-adv-x="1520" 
d="M362 0h-178v1443h175l783 -1123h16v1123h178v-1443h-175l-783 1119h-16v-1119zM678 -139h164l300 -298h-202l-172 177h-16l-172 -177h-202z" />
    <glyph glyph-name="Nlinebelow" unicode="&#x1e48;" horiz-adv-x="1520" 
d="M362 0h-178v1443h175l783 -1123h16v1123h178v-1443h-175l-783 1119h-16v-1119zM1097 -212v-136h-674v136h674z" />
    <glyph glyph-name="Ncommaaccent" unicode="&#x145;" horiz-adv-x="1520" 
d="M362 0h-178v1443h175l783 -1123h16v1123h178v-1443h-175l-783 1119h-16v-1119zM763 -518h-167l102 377h182z" />
    <glyph glyph-name="Ncommaaccent.mini" horiz-adv-x="1520" 
d="M362 0h-178v1443h175l783 -1123h16v1123h178v-1443h-175l-783 1119h-16v-1119zM773 -432h-143l79 290h177z" />
    <glyph glyph-name="O" unicode="O" horiz-adv-x="1579" 
d="M791 1477c410 0 660 -292 660 -755c0 -461 -248 -756 -660 -756c-414 0 -663 294 -663 756c0 464 255 755 663 755zM791 1311c-294 0 -478 -228 -478 -589c0 -358 178 -590 478 -590c296 0 475 232 475 590c0 361 -180 589 -475 589z" />
    <glyph glyph-name="Odieresis" unicode="&#xd6;" horiz-adv-x="1579" 
d="M791 1477c410 0 660 -292 660 -755c0 -461 -248 -756 -660 -756c-414 0 -663 294 -663 756c0 464 255 755 663 755zM791 1311c-294 0 -478 -228 -478 -589c0 -358 178 -590 478 -590c296 0 475 232 475 590c0 361 -180 589 -475 589zM589 1575c-67 0 -121 54 -121 121
s54 121 121 121s121 -54 121 -121s-54 -121 -121 -121zM993 1575c-67 0 -121 54 -121 121s54 121 121 121s121 -54 121 -121s-54 -121 -121 -121z" />
    <glyph glyph-name="Oslash" unicode="&#xd8;" horiz-adv-x="1551" 
d="M1158 1127l-675 -881c78 -73 183 -114 308 -114c296 0 475 232 475 590c0 166 -38 304 -108 405zM403 346l672 871c-76 61 -172 94 -284 94c-294 0 -478 -228 -478 -589c0 -150 31 -278 90 -376zM1382 1419l-110 -143c116 -131 179 -321 179 -554
c0 -461 -248 -756 -660 -756c-168 0 -309 49 -418 137l-115 -150l-100 76l127 165c-102 130 -157 310 -157 528c0 464 255 755 663 755c155 0 288 -42 392 -119l101 130z" />
    <glyph glyph-name="Otilde" unicode="&#xd5;" horiz-adv-x="1579" 
d="M791 1477c410 0 660 -292 660 -755c0 -461 -248 -756 -660 -756c-414 0 -663 294 -663 756c0 464 255 755 663 755zM791 1311c-294 0 -478 -228 -478 -589c0 -358 178 -590 478 -590c296 0 475 232 475 590c0 361 -180 589 -475 589zM936 1580c-160 0 -204 157 -284 157
c-70 0 -98 -44 -98 -157h-142c0 182 87 291 232 291c160 0 204 -157 284 -157c70 0 98 44 98 157h142c0 -182 -87 -291 -232 -291z" />
    <glyph glyph-name="Oacute" unicode="&#xd3;" horiz-adv-x="1579" 
d="M791 1477c410 0 660 -292 660 -755c0 -461 -248 -756 -660 -756c-414 0 -663 294 -663 756c0 464 255 755 663 755zM791 1311c-294 0 -478 -228 -478 -589c0 -358 178 -590 478 -590c296 0 475 232 475 590c0 361 -180 589 -475 589zM889 1575h-204l310 298h226z" />
    <glyph glyph-name="Ocircumflex" unicode="&#xd4;" horiz-adv-x="1579" 
d="M791 1477c410 0 660 -292 660 -755c0 -461 -248 -756 -660 -756c-414 0 -663 294 -663 756c0 464 255 755 663 755zM791 1311c-294 0 -478 -228 -478 -589c0 -358 178 -590 478 -590c296 0 475 232 475 590c0 361 -180 589 -475 589zM709 1873h164l300 -298h-202
l-172 177h-16l-172 -177h-202z" />
    <glyph glyph-name="Ograve" unicode="&#xd2;" horiz-adv-x="1579" 
d="M791 1477c410 0 660 -292 660 -755c0 -461 -248 -756 -660 -756c-414 0 -663 294 -663 756c0 464 255 755 663 755zM791 1311c-294 0 -478 -228 -478 -589c0 -358 178 -590 478 -590c296 0 475 232 475 590c0 361 -180 589 -475 589zM685 1575l-332 298h226l310 -298
h-204z" />
    <glyph glyph-name="Ocircumflexhookabove" unicode="&#x1ed4;" horiz-adv-x="1579" 
d="M791 1477c410 0 660 -292 660 -755c0 -461 -248 -756 -660 -756c-414 0 -663 294 -663 756c0 464 255 755 663 755zM791 1311c-294 0 -478 -228 -478 -589c0 -358 178 -590 478 -590c296 0 475 232 475 590c0 361 -180 589 -475 589zM693 1808h196l294 -233h-222
l-162 135h-16l-162 -135h-222zM903 1977v102c22 8 75 16 135 16c108 0 183 -64 183 -159c0 -77 -53 -151 -129 -175l-98 71c51 17 84 55 84 97c0 37 -34 64 -81 64c-37 0 -74 -7 -94 -16z" />
    <glyph glyph-name="Ocircumflexgrave" unicode="&#x1ed2;" horiz-adv-x="1579" 
d="M791 1477c410 0 660 -292 660 -755c0 -461 -248 -756 -660 -756c-414 0 -663 294 -663 756c0 464 255 755 663 755zM791 1311c-294 0 -478 -228 -478 -589c0 -358 178 -590 478 -590c296 0 475 232 475 590c0 361 -180 589 -475 589zM693 1808h196l294 -233h-222
l-162 135h-16l-162 -135h-222zM1225 1853h-190l-246 242h216z" />
    <glyph glyph-name="Odotbelow" unicode="&#x1ecc;" horiz-adv-x="1579" 
d="M791 1477c410 0 660 -292 660 -755c0 -461 -248 -756 -660 -756c-414 0 -663 294 -663 756c0 464 255 755 663 755zM791 1311c-294 0 -478 -228 -478 -589c0 -358 178 -590 478 -590c296 0 475 232 475 590c0 361 -180 589 -475 589zM791 -402c-67 0 -121 54 -121 121
s54 121 121 121s121 -54 121 -121s-54 -121 -121 -121z" />
    <glyph glyph-name="Odblgrave" unicode="&#x20c;" horiz-adv-x="1579" 
d="M791 1477c410 0 660 -292 660 -755c0 -461 -248 -756 -660 -756c-414 0 -663 294 -663 756c0 464 255 755 663 755zM791 1311c-294 0 -478 -228 -478 -589c0 -358 178 -590 478 -590c296 0 475 232 475 590c0 361 -180 589 -475 589zM911 1575l-332 298h226l310 -298
h-204zM497 1575l-332 298h226l310 -298h-204z" />
    <glyph glyph-name="Otildeacute" unicode="&#x1e4c;" horiz-adv-x="1579" 
d="M791 1477c410 0 660 -292 660 -755c0 -461 -248 -756 -660 -756c-414 0 -663 294 -663 756c0 464 255 755 663 755zM791 1311c-294 0 -478 -228 -478 -589c0 -358 178 -590 478 -590c296 0 475 232 475 590c0 361 -180 589 -475 589zM931 1575c-170 0 -168 128 -276 128
c-57 0 -90 -38 -94 -111h-136c0 141 92 241 226 241c170 0 168 -128 276 -128c48 0 89 33 95 111h135c0 -133 -92 -241 -226 -241zM765 1873l220 222h218l-248 -222h-190z" />
    <glyph glyph-name="Omacronacute" unicode="&#x1e52;" horiz-adv-x="1579" 
d="M791 1477c410 0 660 -292 660 -755c0 -461 -248 -756 -660 -756c-414 0 -663 294 -663 756c0 464 255 755 663 755zM791 1311c-294 0 -478 -228 -478 -589c0 -358 178 -590 478 -590c296 0 475 232 475 590c0 361 -180 589 -475 589zM1128 1619h-674v130h674v-130z
M685 1872l220 222h218l-246 -222h-192z" />
    <glyph glyph-name="Ocircumflextilde" unicode="&#x1ed6;" horiz-adv-x="1579" 
d="M791 1477c410 0 660 -292 660 -755c0 -461 -248 -756 -660 -756c-414 0 -663 294 -663 756c0 464 255 755 663 755zM791 1311c-294 0 -478 -228 -478 -589c0 -358 178 -590 478 -590c296 0 475 232 475 590c0 361 -180 589 -475 589zM931 1854c-170 0 -168 128 -276 128
c-57 0 -90 -38 -94 -111h-136c0 141 92 241 226 241c170 0 168 -128 276 -128c48 0 89 33 95 111h135c0 -133 -92 -241 -226 -241zM693 1808h196l294 -233h-222l-162 135h-16l-162 -135h-222z" />
    <glyph glyph-name="Odotaccentmacron" unicode="&#x230;" horiz-adv-x="1579" 
d="M791 1477c410 0 660 -292 660 -755c0 -461 -248 -756 -660 -756c-414 0 -663 294 -663 756c0 464 255 755 663 755zM791 1311c-294 0 -478 -228 -478 -589c0 -358 178 -590 478 -590c296 0 475 232 475 590c0 361 -180 589 -475 589zM791 1577c-66 0 -119 53 -119 119
s53 119 119 119s119 -53 119 -119s-53 -119 -119 -119zM1128 2062v-130h-674v130h674z" />
    <glyph glyph-name="Omacrongrave" unicode="&#x1e50;" horiz-adv-x="1579" 
d="M791 1477c410 0 660 -292 660 -755c0 -461 -248 -756 -660 -756c-414 0 -663 294 -663 756c0 464 255 755 663 755zM791 1311c-294 0 -478 -228 -478 -589c0 -358 178 -590 478 -590c296 0 475 232 475 590c0 361 -180 589 -475 589zM454 1620v130h674v-130h-674z
M897 1873h-192l-246 222h218z" />
    <glyph glyph-name="Ocaron" unicode="&#x1d1;" horiz-adv-x="1579" 
d="M791 1477c410 0 660 -292 660 -755c0 -461 -248 -756 -660 -756c-414 0 -663 294 -663 756c0 464 255 755 663 755zM791 1311c-294 0 -478 -228 -478 -589c0 -358 178 -590 478 -590c296 0 475 232 475 590c0 361 -180 589 -475 589zM709 1575l-300 298h202l172 -177h16
l172 177h202l-300 -298h-164z" />
    <glyph glyph-name="Oslashacute" unicode="&#x1fe;" horiz-adv-x="1551" 
d="M1206 1873l-332 -298h-204l310 298h226zM1158 1127l-675 -881c78 -73 183 -114 308 -114c296 0 475 232 475 590c0 166 -38 304 -108 405zM403 346l672 871c-76 61 -172 94 -284 94c-294 0 -478 -228 -478 -589c0 -150 31 -278 90 -376zM1382 1419l-110 -143
c116 -131 179 -321 179 -554c0 -461 -248 -756 -660 -756c-168 0 -309 49 -418 137l-115 -150l-100 76l127 165c-102 130 -157 310 -157 528c0 464 255 755 663 755c155 0 288 -42 392 -119l101 130z" />
    <glyph glyph-name="Ohungarumlaut" unicode="&#x150;" horiz-adv-x="1579" 
d="M791 1477c410 0 660 -292 660 -755c0 -461 -248 -756 -660 -756c-414 0 -663 294 -663 756c0 464 255 755 663 755zM791 1311c-294 0 -478 -228 -478 -589c0 -358 178 -590 478 -590c296 0 475 232 475 590c0 361 -180 589 -475 589zM1045 1575h-204l310 298h226z
M631 1575h-204l310 298h226z" />
    <glyph glyph-name="Obreve" unicode="&#x14e;" horiz-adv-x="1579" 
d="M791 1477c410 0 660 -292 660 -755c0 -461 -248 -756 -660 -756c-414 0 -663 294 -663 756c0 464 255 755 663 755zM791 1311c-294 0 -478 -228 -478 -589c0 -358 178 -590 478 -590c296 0 475 232 475 590c0 361 -180 589 -475 589zM427 1873h154
c0 -105 80 -173 210 -173s210 68 210 173h154c0 -179 -138 -298 -364 -298s-364 119 -364 298z" />
    <glyph glyph-name="Oinvertedbreve" unicode="&#x20e;" horiz-adv-x="1579" 
d="M791 1477c410 0 660 -292 660 -755c0 -461 -248 -756 -660 -756c-414 0 -663 294 -663 756c0 464 255 755 663 755zM791 1311c-294 0 -478 -228 -478 -589c0 -358 178 -590 478 -590c296 0 475 232 475 590c0 361 -180 589 -475 589zM427 1575c0 179 138 298 364 298
s364 -119 364 -298h-154c0 105 -80 173 -210 173s-210 -68 -210 -173h-154z" />
    <glyph glyph-name="Ohookabove" unicode="&#x1ece;" horiz-adv-x="1579" 
d="M791 1477c410 0 660 -292 660 -755c0 -461 -248 -756 -660 -756c-414 0 -663 294 -663 756c0 464 255 755 663 755zM791 1311c-294 0 -478 -228 -478 -589c0 -358 178 -590 478 -590c296 0 475 232 475 590c0 361 -180 589 -475 589zM616 1780v120c31 13 84 21 131 21
c138 0 223 -69 223 -180c0 -91 -75 -179 -182 -214l-73 97c64 19 109 63 109 105s-42 73 -98 73c-44 0 -84 -8 -110 -22z" />
    <glyph glyph-name="Odieresismacron" unicode="&#x22a;" horiz-adv-x="1579" 
d="M791 1477c410 0 660 -292 660 -755c0 -461 -248 -756 -660 -756c-414 0 -663 294 -663 756c0 464 255 755 663 755zM791 1311c-294 0 -478 -228 -478 -589c0 -358 178 -590 478 -590c296 0 475 232 475 590c0 361 -180 589 -475 589zM589 1809c65 0 117 -52 117 -117
s-52 -117 -117 -117s-117 52 -117 117s52 117 117 117zM454 2062h674v-130h-674v130zM993 1809c65 0 117 -52 117 -117s-52 -117 -117 -117s-117 52 -117 117s52 117 117 117z" />
    <glyph glyph-name="Otildemacron" unicode="&#x22c;" horiz-adv-x="1579" 
d="M791 1477c410 0 660 -292 660 -755c0 -461 -248 -756 -660 -756c-414 0 -663 294 -663 756c0 464 255 755 663 755zM791 1311c-294 0 -478 -228 -478 -589c0 -358 178 -590 478 -590c296 0 475 232 475 590c0 361 -180 589 -475 589zM931 1575c-170 0 -168 128 -276 128
c-57 0 -90 -38 -94 -111h-136c0 141 92 241 226 241c170 0 168 -128 276 -128c48 0 89 33 95 111h135c0 -133 -92 -241 -226 -241zM1128 2062v-130h-674v130h674z" />
    <glyph glyph-name="Odotaccent" unicode="&#x22e;" horiz-adv-x="1579" 
d="M791 1477c410 0 660 -292 660 -755c0 -461 -248 -756 -660 -756c-414 0 -663 294 -663 756c0 464 255 755 663 755zM791 1311c-294 0 -478 -228 -478 -589c0 -358 178 -590 478 -590c296 0 475 232 475 590c0 361 -180 589 -475 589zM791 1575c-67 0 -121 54 -121 121
s54 121 121 121s121 -54 121 -121s-54 -121 -121 -121z" />
    <glyph glyph-name="Ocircumflexdotbelow" unicode="&#x1ed8;" horiz-adv-x="1579" 
d="M791 1477c410 0 660 -292 660 -755c0 -461 -248 -756 -660 -756c-414 0 -663 294 -663 756c0 464 255 755 663 755zM791 1311c-294 0 -478 -228 -478 -589c0 -358 178 -590 478 -590c296 0 475 232 475 590c0 361 -180 589 -475 589zM709 1873h164l300 -298h-202
l-172 177h-16l-172 -177h-202zM791 -402c-67 0 -121 54 -121 121s54 121 121 121s121 -54 121 -121s-54 -121 -121 -121z" />
    <glyph glyph-name="Ocircumflexacute" unicode="&#x1ed0;" horiz-adv-x="1579" 
d="M791 1477c410 0 660 -292 660 -755c0 -461 -248 -756 -660 -756c-414 0 -663 294 -663 756c0 464 255 755 663 755zM791 1311c-294 0 -478 -228 -478 -589c0 -358 178 -590 478 -590c296 0 475 232 475 590c0 361 -180 589 -475 589zM693 1808h196l294 -233h-222
l-162 135h-16l-162 -135h-222zM989 1853l220 242h216l-246 -242h-190z" />
    <glyph glyph-name="Otildedieresis" unicode="&#x1e4e;" horiz-adv-x="1579" 
d="M791 1477c410 0 660 -292 660 -755c0 -461 -248 -756 -660 -756c-414 0 -663 294 -663 756c0 464 255 755 663 755zM791 1311c-294 0 -478 -228 -478 -589c0 -358 178 -590 478 -590c296 0 475 232 475 590c0 361 -180 589 -475 589zM931 1566c-170 0 -168 128 -276 128
c-57 0 -90 -38 -94 -111h-136c0 141 92 241 226 241c170 0 168 -128 276 -128c48 0 89 33 95 111h135c0 -133 -92 -241 -226 -241zM589 2095c69 0 117 -43 117 -103s-48 -103 -117 -103s-117 43 -117 103s48 103 117 103zM993 2095c69 0 117 -43 117 -103
s-48 -103 -117 -103s-117 43 -117 103s48 103 117 103z" />
    <glyph glyph-name="Omacron" unicode="&#x14c;" horiz-adv-x="1579" 
d="M791 1477c410 0 660 -292 660 -755c0 -461 -248 -756 -660 -756c-414 0 -663 294 -663 756c0 464 255 755 663 755zM791 1311c-294 0 -478 -228 -478 -589c0 -358 178 -590 478 -590c296 0 475 232 475 590c0 361 -180 589 -475 589zM1128 1756v-136h-674v136h674z" />
    <glyph glyph-name="Oogonek" unicode="&#x1ea;" horiz-adv-x="1579" 
d="M1058 -432c-142 0 -243 85 -243 204c0 80 46 153 131 208v16c-26 -17 -93 -30 -155 -30c-410 0 -663 289 -663 756c0 464 255 755 663 755c407 0 660 -289 660 -755c0 -289 -98 -497 -334 -708c-86 -76 -133 -148 -133 -204c0 -57 46 -98 112 -98c27 0 51 2 66 6v-134
c-31 -11 -65 -16 -104 -16zM791 1311c-293 0 -478 -227 -478 -589c0 -364 183 -590 478 -590c292 0 475 227 475 590s-182 589 -475 589z" />
    <glyph glyph-name="Oogonekmacron" unicode="&#x1ec;" horiz-adv-x="1579" 
d="M1058 -432c-142 0 -243 85 -243 204c0 80 46 153 131 208v16c-26 -17 -93 -30 -155 -30c-410 0 -663 289 -663 756c0 464 255 755 663 755c407 0 660 -289 660 -755c0 -289 -98 -497 -334 -708c-86 -76 -133 -148 -133 -204c0 -57 46 -98 112 -98c27 0 51 2 66 6v-134
c-31 -11 -65 -16 -104 -16zM791 1311c-293 0 -478 -227 -478 -589c0 -364 183 -590 478 -590c292 0 475 227 475 590s-182 589 -475 589zM1128 1756v-136h-674v136h674z" />
    <glyph glyph-name="Ohorn" unicode="&#x1a0;" horiz-adv-x="1603" 
d="M791 -34c-414 0 -663 294 -663 756c0 464 255 755 663 755c149 0 266 -40 416 -40c84 0 109 26 109 93v140h159v-192c0 -110 -84 -171 -182 -171h-59v-12c129 -90 217 -324 217 -573c0 -461 -248 -756 -660 -756zM791 132c296 0 475 232 475 590c0 361 -180 589 -475 589
c-294 0 -478 -228 -478 -589c0 -358 178 -590 478 -590z" />
    <glyph glyph-name="Ohorndotbelow" unicode="&#x1ee2;" horiz-adv-x="1603" 
d="M791 -34c-414 0 -663 294 -663 756c0 464 255 755 663 755c149 0 266 -40 416 -40c84 0 109 26 109 93v140h159v-192c0 -110 -84 -171 -182 -171h-59v-12c129 -90 217 -324 217 -573c0 -461 -248 -756 -660 -756zM791 132c296 0 475 232 475 590c0 361 -180 589 -475 589
c-294 0 -478 -228 -478 -589c0 -358 178 -590 478 -590zM791 -402c-67 0 -121 54 -121 121s54 121 121 121s121 -54 121 -121s-54 -121 -121 -121z" />
    <glyph glyph-name="Ohornhookabove" unicode="&#x1ede;" horiz-adv-x="1603" 
d="M791 -34c-414 0 -663 294 -663 756c0 464 255 755 663 755c149 0 266 -40 416 -40c84 0 109 26 109 93v140h159v-192c0 -110 -84 -171 -182 -171h-59v-12c129 -90 217 -324 217 -573c0 -461 -248 -756 -660 -756zM791 132c296 0 475 232 475 590c0 361 -180 589 -475 589
c-294 0 -478 -228 -478 -589c0 -358 178 -590 478 -590zM616 1780v120c31 13 84 21 131 21c138 0 223 -69 223 -180c0 -91 -75 -179 -182 -214l-73 97c64 19 109 63 109 105s-42 73 -98 73c-44 0 -84 -8 -110 -22z" />
    <glyph glyph-name="Ohorntilde" unicode="&#x1ee0;" horiz-adv-x="1603" 
d="M791 -34c-414 0 -663 294 -663 756c0 464 255 755 663 755c149 0 266 -40 416 -40c84 0 109 26 109 93v140h159v-192c0 -110 -84 -171 -182 -171h-59v-12c129 -90 217 -324 217 -573c0 -461 -248 -756 -660 -756zM791 132c296 0 475 232 475 590c0 361 -180 589 -475 589
c-294 0 -478 -228 -478 -589c0 -358 178 -590 478 -590zM936 1580c-160 0 -204 157 -284 157c-70 0 -98 -44 -98 -157h-142c0 182 87 291 232 291c160 0 204 -157 284 -157c70 0 98 44 98 157h142c0 -182 -87 -291 -232 -291z" />
    <glyph glyph-name="Ohorngrave" unicode="&#x1edc;" horiz-adv-x="1603" 
d="M791 -34c-414 0 -663 294 -663 756c0 464 255 755 663 755c149 0 266 -40 416 -40c84 0 109 26 109 93v140h159v-192c0 -110 -84 -171 -182 -171h-59v-12c129 -90 217 -324 217 -573c0 -461 -248 -756 -660 -756zM791 132c296 0 475 232 475 590c0 361 -180 589 -475 589
c-294 0 -478 -228 -478 -589c0 -358 178 -590 478 -590zM685 1575l-332 298h226l310 -298h-204z" />
    <glyph glyph-name="Ohornacute" unicode="&#x1eda;" horiz-adv-x="1603" 
d="M791 -34c-414 0 -663 294 -663 756c0 464 255 755 663 755c149 0 266 -40 416 -40c84 0 109 26 109 93v140h159v-192c0 -110 -84 -171 -182 -171h-59v-12c129 -90 217 -324 217 -573c0 -461 -248 -756 -660 -756zM791 132c296 0 475 232 475 590c0 361 -180 589 -475 589
c-294 0 -478 -228 -478 -589c0 -358 178 -590 478 -590zM889 1575h-204l310 298h226z" />
    <glyph glyph-name="Oogonek.mini" horiz-adv-x="1579" 
d="M1058 -432c-142 0 -243 85 -243 204c0 80 46 153 131 208v16c-26 -17 -93 -30 -155 -30c-410 0 -663 289 -663 756c0 464 255 755 663 755c407 0 660 -289 660 -755c0 -289 -98 -497 -334 -708c-86 -76 -133 -148 -133 -204c0 -57 46 -98 112 -98c27 0 51 2 66 6v-134
c-31 -11 -65 -16 -104 -16zM791 1311c-293 0 -478 -227 -478 -589c0 -364 183 -590 478 -590c292 0 475 227 475 590s-182 589 -475 589z" />
    <glyph glyph-name="Ocircumflexacute.mini" horiz-adv-x="1579" 
d="M791 1347c380 0 660 -261 660 -690s-278 -691 -660 -691c-384 0 -663 261 -663 691s285 690 663 690zM791 1181c-265 0 -478 -197 -478 -524c0 -326 207 -525 478 -525c267 0 475 199 475 525c0 327 -209 524 -475 524zM889 1678l294 -233h-222l-162 135h-16l-162 -135
h-222l294 233h196zM989 1723l190 227h216l-216 -227h-190z" />
    <glyph glyph-name="O.mini" horiz-adv-x="1579" 
d="M791 1347c380 0 660 -261 660 -690s-278 -691 -660 -691c-384 0 -663 261 -663 691s285 690 663 690zM791 1181c-265 0 -478 -197 -478 -524c0 -326 207 -525 478 -525c267 0 475 199 475 525c0 327 -209 524 -475 524z" />
    <glyph glyph-name="Ocircumflexgrave.mini" horiz-adv-x="1579" 
d="M791 1347c380 0 660 -261 660 -690s-278 -691 -660 -691c-384 0 -663 261 -663 691s285 690 663 690zM791 1181c-265 0 -478 -197 -478 -524c0 -326 207 -525 478 -525c267 0 475 199 475 525c0 327 -209 524 -475 524zM889 1678l294 -233h-222l-162 135h-16l-162 -135
h-222l294 233h196zM1215 1723h-190l-216 227h216z" />
    <glyph glyph-name="Otildemacron.mini" horiz-adv-x="1579" 
d="M791 1347c380 0 660 -261 660 -690s-278 -691 -660 -691c-384 0 -663 261 -663 691s285 690 663 690zM791 1181c-265 0 -478 -197 -478 -524c0 -326 207 -525 478 -525c267 0 475 199 475 525c0 327 -209 524 -475 524zM1128 1802h-674v130h674v-130zM931 1445
c-170 0 -168 128 -276 128c-57 0 -90 -38 -94 -111h-136c0 141 92 241 226 241c170 0 168 -128 276 -128c48 0 89 33 95 111h135c0 -133 -92 -241 -226 -241z" />
    <glyph glyph-name="Omacronacute.mini" horiz-adv-x="1579" 
d="M791 1347c380 0 660 -261 660 -690s-278 -691 -660 -691c-384 0 -663 261 -663 691s285 690 663 690zM791 1181c-265 0 -478 -197 -478 -524c0 -326 207 -525 478 -525c267 0 475 199 475 525c0 327 -209 524 -475 524zM1128 1490h-674v130h674v-130zM685 1743l190 207
h214l-214 -207h-190z" />
    <glyph glyph-name="Omacrongrave.mini" horiz-adv-x="1579" 
d="M791 1347c380 0 660 -261 660 -690s-278 -691 -660 -691c-384 0 -663 261 -663 691s285 690 663 690zM791 1181c-265 0 -478 -197 -478 -524c0 -326 207 -525 478 -525c267 0 475 199 475 525c0 327 -209 524 -475 524zM1128 1490h-674v130h674v-130zM897 1743h-190
l-214 207h214z" />
    <glyph glyph-name="Otildedieresis.mini" horiz-adv-x="1579" 
d="M791 1347c380 0 660 -261 660 -690s-278 -691 -660 -691c-384 0 -663 261 -663 691s285 690 663 690zM791 1181c-265 0 -478 -197 -478 -524c0 -326 207 -525 478 -525c267 0 475 199 475 525c0 327 -209 524 -475 524zM937 1445c-170 0 -174 108 -282 108
c-57 0 -90 -28 -94 -91h-136c0 141 82 221 216 221c170 0 178 -108 286 -108c60 0 89 23 95 91h135c0 -133 -86 -221 -220 -221zM589 1744c-69 0 -117 43 -117 103s48 103 117 103s117 -43 117 -103s-48 -103 -117 -103zM993 1744c-69 0 -117 43 -117 103s48 103 117 103
s117 -43 117 -103s-48 -103 -117 -103z" />
    <glyph glyph-name="Otildeacute.mini" horiz-adv-x="1579" 
d="M791 1347c380 0 660 -261 660 -690s-278 -691 -660 -691c-384 0 -663 261 -663 691s285 690 663 690zM791 1181c-265 0 -478 -197 -478 -524c0 -326 207 -525 478 -525c267 0 475 199 475 525c0 327 -209 524 -475 524zM765 1743l190 207h214l-214 -207h-190zM931 1445
c-170 0 -168 128 -276 128c-57 0 -90 -38 -94 -111h-136c0 141 92 241 226 241c170 0 168 -128 276 -128c48 0 89 33 95 111h135c0 -133 -92 -241 -226 -241z" />
    <glyph glyph-name="Odieresismacron.mini" horiz-adv-x="1579" 
d="M791 1347c380 0 660 -261 660 -690s-278 -691 -660 -691c-384 0 -663 261 -663 691s285 690 663 690zM791 1181c-265 0 -478 -197 -478 -524c0 -326 207 -525 478 -525c267 0 475 199 475 525c0 327 -209 524 -475 524zM454 1802v130h674v-130h-674zM589 1445
c-65 0 -117 52 -117 117s52 117 117 117s117 -52 117 -117s-52 -117 -117 -117zM993 1445c-65 0 -117 52 -117 117s52 117 117 117s117 -52 117 -117s-52 -117 -117 -117z" />
    <glyph glyph-name="Odotaccentmacron.mini" horiz-adv-x="1579" 
d="M791 1347c380 0 660 -261 660 -690s-278 -691 -660 -691c-384 0 -663 261 -663 691s285 690 663 690zM791 1181c-265 0 -478 -197 -478 -524c0 -326 207 -525 478 -525c267 0 475 199 475 525c0 327 -209 524 -475 524zM791 1447c-66 0 -119 53 -119 119s53 119 119 119
s119 -53 119 -119s-53 -119 -119 -119zM1128 1802h-674v130h674v-130z" />
    <glyph glyph-name="Ocircumflexhookabove.mini" horiz-adv-x="1579" 
d="M791 1347c380 0 660 -261 660 -690s-278 -691 -660 -691c-384 0 -663 261 -663 691s285 690 663 690zM791 1181c-265 0 -478 -197 -478 -524c0 -326 207 -525 478 -525c267 0 475 199 475 525c0 327 -209 524 -475 524zM889 1678l294 -233h-222l-162 135h-16l-162 -135
h-222l294 233h196zM903 1832v102c22 8 75 16 135 16c108 0 183 -64 183 -159c0 -77 -52 -151 -128 -175l-96 69c51 17 81 57 81 99c0 37 -34 64 -81 64c-37 0 -74 -7 -94 -16z" />
    <glyph glyph-name="Ocircumflextilde.mini" horiz-adv-x="1579" 
d="M791 1347c380 0 660 -261 660 -690s-278 -691 -660 -691c-384 0 -663 261 -663 691s285 690 663 690zM791 1181c-265 0 -478 -197 -478 -524c0 -326 207 -525 478 -525c267 0 475 199 475 525c0 327 -209 524 -475 524zM889 1678l294 -233h-222l-162 135h-16l-162 -135
h-222l294 233h196zM943 1722c-166 0 -179 102 -287 102c-57 0 -91 -32 -95 -81h-134c0 123 78 207 210 207c170 0 187 -102 289 -102c60 0 89 27 95 95h134c0 -133 -78 -221 -212 -221z" />
    <glyph glyph-name="P" unicode="P" horiz-adv-x="1301" 
d="M184 1443h545c273 0 462 -192 462 -467c0 -270 -193 -461 -464 -461h-363v-515h-180v1443zM364 1283v-608h318c205 0 324 110 324 301c0 198 -115 307 -324 307h-318z" />
    <glyph glyph-name="Pdotaccent" unicode="&#x1e56;" horiz-adv-x="1301" 
d="M184 1443h545c273 0 462 -192 462 -467c0 -270 -193 -461 -464 -461h-363v-515h-180v1443zM364 1283v-608h318c205 0 324 110 324 301c0 198 -115 307 -324 307h-318zM579 1575c-67 0 -121 54 -121 121s54 121 121 121s121 -54 121 -121s-54 -121 -121 -121z" />
    <glyph glyph-name="Pacute" unicode="&#x1e54;" horiz-adv-x="1301" 
d="M184 1443h545c273 0 462 -192 462 -467c0 -270 -193 -461 -464 -461h-363v-515h-180v1443zM364 1283v-608h318c205 0 324 110 324 301c0 198 -115 307 -324 307h-318zM677 1575h-204l310 298h226z" />
    <glyph glyph-name="Q" unicode="Q" horiz-adv-x="1579" 
d="M791 -34c-411 0 -663 287 -663 755c0 466 255 756 663 756c406 0 660 -291 660 -756c0 -287 -92 -512 -256 -630l183 -254h-202l-127 173c-77 -29 -165 -44 -258 -44zM792 132c53 0 104 7 154 22l-191 259h204l131 -174c113 90 176 262 176 482c0 362 -183 590 -475 590
c-294 0 -478 -227 -478 -590c0 -364 183 -589 479 -589z" />
    <glyph glyph-name="R" unicode="R" horiz-adv-x="1338" 
d="M364 1283v-552h355c185 0 290 99 290 276c0 173 -112 276 -298 276h-347zM364 571v-571h-180v1443h551c278 0 460 -170 460 -430c0 -201 -109 -357 -290 -414l334 -599h-211l-309 571v0h-355z" />
    <glyph glyph-name="Rcaron" unicode="&#x158;" horiz-adv-x="1338" 
d="M364 1283v-552h355c185 0 290 99 290 276c0 173 -112 276 -298 276h-347zM364 571v-571h-180v1443h551c278 0 460 -170 460 -430c0 -201 -109 -357 -290 -414l334 -599h-211l-309 571v0h-355zM527 1575l-300 298h202l172 -177h16l172 177h202l-300 -298h-164z" />
    <glyph glyph-name="Rlinebelow" unicode="&#x1e5e;" horiz-adv-x="1338" 
d="M364 1283v-552h355c185 0 290 99 290 276c0 173 -112 276 -298 276h-347zM364 571v-571h-180v1443h551c278 0 460 -170 460 -430c0 -201 -109 -357 -290 -414l334 -599h-211l-309 571v0h-355zM946 -212v-136h-674v136h674z" />
    <glyph glyph-name="Rdotbelowmacron" unicode="&#x1e5c;" horiz-adv-x="1338" 
d="M364 1283v-552h355c185 0 290 99 290 276c0 173 -112 276 -298 276h-347zM364 571v-571h-180v1443h551c278 0 460 -170 460 -430c0 -201 -109 -357 -290 -414l334 -599h-211l-309 571v0h-355zM609 -402c-67 0 -121 54 -121 121s54 121 121 121s121 -54 121 -121
s-54 -121 -121 -121zM946 1756v-136h-674v136h674z" />
    <glyph glyph-name="Rdblgrave" unicode="&#x210;" horiz-adv-x="1338" 
d="M364 1283v-552h355c185 0 290 99 290 276c0 173 -112 276 -298 276h-347zM364 571v-571h-180v1443h551c278 0 460 -170 460 -430c0 -201 -109 -357 -290 -414l334 -599h-211l-309 571v0h-355zM729 1575l-332 298h226l310 -298h-204zM315 1575l-332 298h226l310 -298h-204
z" />
    <glyph glyph-name="Rinvertedbreve" unicode="&#x212;" horiz-adv-x="1338" 
d="M364 1283v-552h355c185 0 290 99 290 276c0 173 -112 276 -298 276h-347zM364 571v-571h-180v1443h551c278 0 460 -170 460 -430c0 -201 -109 -357 -290 -414l334 -599h-211l-309 571v0h-355zM245 1575c0 179 138 298 364 298s364 -119 364 -298h-154
c0 105 -80 173 -210 173s-210 -68 -210 -173h-154z" />
    <glyph glyph-name="Racute" unicode="&#x154;" horiz-adv-x="1338" 
d="M364 1283v-552h355c185 0 290 99 290 276c0 173 -112 276 -298 276h-347zM364 571v-571h-180v1443h551c278 0 460 -170 460 -430c0 -201 -109 -357 -290 -414l334 -599h-211l-309 571v0h-355zM707 1575h-204l310 298h226z" />
    <glyph glyph-name="Rdotbelow" unicode="&#x1e5a;" horiz-adv-x="1338" 
d="M364 1283v-552h355c185 0 290 99 290 276c0 173 -112 276 -298 276h-347zM364 571v-571h-180v1443h551c278 0 460 -170 460 -430c0 -201 -109 -357 -290 -414l334 -599h-211l-309 571v0h-355zM609 -402c-67 0 -121 54 -121 121s54 121 121 121s121 -54 121 -121
s-54 -121 -121 -121z" />
    <glyph glyph-name="Rdotaccent" unicode="&#x1e58;" horiz-adv-x="1338" 
d="M364 1283v-552h355c185 0 290 99 290 276c0 173 -112 276 -298 276h-347zM364 571v-571h-180v1443h551c278 0 460 -170 460 -430c0 -201 -109 -357 -290 -414l334 -599h-211l-309 571v0h-355zM609 1575c-67 0 -121 54 -121 121s54 121 121 121s121 -54 121 -121
s-54 -121 -121 -121z" />
    <glyph glyph-name="Rcommaaccent" unicode="&#x156;" horiz-adv-x="1338" 
d="M364 1283v-552h355c185 0 290 99 290 276c0 173 -112 276 -298 276h-347zM364 571v-571h-180v1443h551c278 0 460 -170 460 -430c0 -201 -109 -357 -290 -414l334 -599h-211l-309 571v0h-355zM612 -518h-167l102 377h182z" />
    <glyph glyph-name="Rcommaaccent.mini" horiz-adv-x="1338" 
d="M364 1283v-552h355c185 0 290 99 290 276c0 173 -112 276 -298 276h-347zM364 571v-571h-180v1443h551c278 0 460 -170 460 -430c0 -201 -109 -357 -290 -414l334 -599h-211l-309 571v0h-355zM622 -432h-143l79 290h177z" />
    <glyph glyph-name="S" unicode="S" horiz-adv-x="1305" 
d="M115 377h182c22 -151 166 -247 371 -247c194 0 337 105 337 248c0 123 -90 201 -289 251l-185 48c-261 66 -374 184 -374 389c0 245 205 411 510 411c279 0 487 -166 502 -399h-181c-25 148 -147 236 -327 236c-192 0 -319 -96 -319 -242c0 -113 79 -178 278 -229
l151 -40c299 -75 419 -191 419 -403c0 -265 -209 -434 -539 -434c-306 0 -517 162 -536 411z" />
    <glyph glyph-name="Scaron" unicode="&#x160;" horiz-adv-x="1305" 
d="M115 377h182c22 -151 166 -247 371 -247c194 0 337 105 337 248c0 123 -90 201 -289 251l-185 48c-261 66 -374 184 -374 389c0 245 205 411 510 411c279 0 487 -166 502 -399h-181c-25 148 -147 236 -327 236c-192 0 -319 -96 -319 -242c0 -113 79 -178 278 -229
l151 -40c299 -75 419 -191 419 -403c0 -265 -209 -434 -539 -434c-306 0 -517 162 -536 411zM585 1575l-300 298h202l172 -177h16l172 177h202l-300 -298h-164z" />
    <glyph glyph-name="Scedilla" unicode="&#x15e;" horiz-adv-x="1305" 
d="M620 843l151 -40c299 -75 419 -191 419 -403c0 -248 -183 -412 -476 -432l-39 -100c136 0 215 -60 215 -163c0 -111 -91 -189 -244 -189c-59 0 -105 6 -146 18v108c24 -7 86 -14 122 -14c77 0 119 26 119 73c0 46 -43 65 -149 65h-59v84l48 119
c-268 23 -448 178 -466 408h182c22 -151 166 -247 371 -247c194 0 337 105 337 248c0 123 -90 201 -289 251l-185 48c-261 66 -374 184 -374 389c0 245 205 411 510 411c279 0 487 -166 502 -399h-181c-25 148 -147 236 -327 236c-192 0 -319 -96 -319 -242
c0 -113 79 -178 278 -229z" />
    <glyph glyph-name="Sdotaccent" unicode="&#x1e60;" horiz-adv-x="1305" 
d="M115 377h182c22 -151 166 -247 371 -247c194 0 337 105 337 248c0 123 -90 201 -289 251l-185 48c-261 66 -374 184 -374 389c0 245 205 411 510 411c279 0 487 -166 502 -399h-181c-25 148 -147 236 -327 236c-192 0 -319 -96 -319 -242c0 -113 79 -178 278 -229
l151 -40c299 -75 419 -191 419 -403c0 -265 -209 -434 -539 -434c-306 0 -517 162 -536 411zM667 1575c-67 0 -121 54 -121 121s54 121 121 121s121 -54 121 -121s-54 -121 -121 -121z" />
    <glyph glyph-name="Sdotbelow" unicode="&#x1e62;" horiz-adv-x="1305" 
d="M115 377h182c22 -151 166 -247 371 -247c194 0 337 105 337 248c0 123 -90 201 -289 251l-185 48c-261 66 -374 184 -374 389c0 245 205 411 510 411c279 0 487 -166 502 -399h-181c-25 148 -147 236 -327 236c-192 0 -319 -96 -319 -242c0 -113 79 -178 278 -229
l151 -40c299 -75 419 -191 419 -403c0 -265 -209 -434 -539 -434c-306 0 -517 162 -536 411zM651 -402c-67 0 -121 54 -121 121s54 121 121 121s121 -54 121 -121s-54 -121 -121 -121z" />
    <glyph glyph-name="Scommaaccent" unicode="&#x218;" horiz-adv-x="1305" 
d="M115 377h182c22 -151 166 -247 371 -247c194 0 337 105 337 248c0 123 -90 201 -289 251l-185 48c-261 66 -374 184 -374 389c0 245 205 411 510 411c279 0 487 -166 502 -399h-181c-25 148 -147 236 -327 236c-192 0 -319 -96 -319 -242c0 -113 79 -178 278 -229
l151 -40c299 -75 419 -191 419 -403c0 -265 -209 -434 -539 -434c-306 0 -517 162 -536 411zM654 -518h-167l102 377h182z" />
    <glyph glyph-name="Sdotbelowdotaccent" unicode="&#x1e68;" horiz-adv-x="1305" 
d="M115 377h182c22 -151 166 -247 371 -247c194 0 337 105 337 248c0 123 -90 201 -289 251l-185 48c-261 66 -374 184 -374 389c0 245 205 411 510 411c279 0 487 -166 502 -399h-181c-25 148 -147 236 -327 236c-192 0 -319 -96 -319 -242c0 -113 79 -178 278 -229
l151 -40c299 -75 419 -191 419 -403c0 -265 -209 -434 -539 -434c-306 0 -517 162 -536 411zM651 -402c-67 0 -121 54 -121 121s54 121 121 121s121 -54 121 -121s-54 -121 -121 -121zM667 1575c-67 0 -121 54 -121 121s54 121 121 121s121 -54 121 -121s-54 -121 -121 -121
z" />
    <glyph glyph-name="Scarondotaccent" unicode="&#x1e66;" horiz-adv-x="1305" 
d="M115 377h182c22 -151 166 -247 371 -247c194 0 337 105 337 248c0 123 -90 201 -289 251l-185 48c-261 66 -374 184 -374 389c0 245 205 411 510 411c279 0 487 -166 502 -399h-181c-25 148 -147 236 -327 236c-192 0 -319 -96 -319 -242c0 -113 79 -178 278 -229
l151 -40c299 -75 419 -191 419 -403c0 -265 -209 -434 -539 -434c-306 0 -517 162 -536 411zM569 1575l-294 233h222l162 -135h16l162 135h222l-294 -233h-196zM667 1857c-66 0 -119 53 -119 119s53 119 119 119s119 -53 119 -119s-53 -119 -119 -119z" />
    <glyph glyph-name="Scircumflex" unicode="&#x15c;" horiz-adv-x="1305" 
d="M115 377h182c22 -151 166 -247 371 -247c194 0 337 105 337 248c0 123 -90 201 -289 251l-185 48c-261 66 -374 184 -374 389c0 245 205 411 510 411c279 0 487 -166 502 -399h-181c-25 148 -147 236 -327 236c-192 0 -319 -96 -319 -242c0 -113 79 -178 278 -229
l151 -40c299 -75 419 -191 419 -403c0 -265 -209 -434 -539 -434c-306 0 -517 162 -536 411zM585 1873h164l300 -298h-202l-172 177h-16l-172 -177h-202z" />
    <glyph glyph-name="Sacutedotaccent" unicode="&#x1e64;" horiz-adv-x="1305" 
d="M115 377h182c22 -151 166 -247 371 -247c194 0 337 105 337 248c0 123 -90 201 -289 251l-185 48c-261 66 -374 184 -374 389c0 245 205 411 510 411c279 0 487 -166 502 -399h-181c-25 148 -147 236 -327 236c-192 0 -319 -96 -319 -242c0 -113 79 -178 278 -229
l151 -40c299 -75 419 -191 419 -403c0 -265 -209 -434 -539 -434c-306 0 -517 162 -536 411zM868 1575h-204l310 298h226zM490 1633c-67 0 -121 54 -121 121s54 121 121 121s121 -54 121 -121s-54 -121 -121 -121z" />
    <glyph glyph-name="Sacute" unicode="&#x15a;" horiz-adv-x="1305" 
d="M115 377h182c22 -151 166 -247 371 -247c194 0 337 105 337 248c0 123 -90 201 -289 251l-185 48c-261 66 -374 184 -374 389c0 245 205 411 510 411c279 0 487 -166 502 -399h-181c-25 148 -147 236 -327 236c-192 0 -319 -96 -319 -242c0 -113 79 -178 278 -229
l151 -40c299 -75 419 -191 419 -403c0 -265 -209 -434 -539 -434c-306 0 -517 162 -536 411zM765 1575h-204l310 298h226z" />
    <glyph glyph-name="germandbls.uc" unicode="&#x1e9e;" horiz-adv-x="2610" 
d="M115 377h182c22 -151 166 -247 371 -247c194 0 337 105 337 248c0 123 -90 201 -289 251l-185 48c-261 66 -374 184 -374 389c0 245 205 411 510 411c279 0 487 -166 502 -399h-181c-25 148 -147 236 -327 236c-192 0 -319 -96 -319 -242c0 -113 79 -178 278 -229
l151 -40c299 -75 419 -191 419 -403c0 -265 -209 -434 -539 -434c-306 0 -517 162 -536 411zM1420 377h182c22 -151 166 -247 371 -247c194 0 337 105 337 248c0 123 -90 201 -289 251l-185 48c-261 66 -374 184 -374 389c0 245 205 411 510 411c279 0 487 -166 502 -399
h-181c-25 148 -147 236 -327 236c-192 0 -319 -96 -319 -242c0 -113 79 -178 278 -229l151 -40c299 -75 419 -191 419 -403c0 -265 -209 -434 -539 -434c-306 0 -517 162 -536 411z" />
    <glyph glyph-name="Scommaaccent.mini" horiz-adv-x="1305" 
d="M115 377h182c22 -151 166 -247 371 -247c194 0 337 105 337 248c0 123 -90 201 -289 251l-185 48c-261 66 -374 184 -374 389c0 245 205 411 510 411c279 0 487 -166 502 -399h-181c-25 148 -147 236 -327 236c-192 0 -319 -96 -319 -242c0 -113 79 -178 278 -229
l151 -40c299 -75 419 -191 419 -403c0 -265 -209 -434 -539 -434c-306 0 -517 162 -536 411zM664 -432h-143l79 290h177z" />
    <glyph glyph-name="Scedilla.mini" horiz-adv-x="1305" 
d="M620 843l151 -40c299 -75 419 -191 419 -403c0 -246 -180 -409 -469 -431l-36 -83c126 -5 194 -58 194 -150c0 -103 -94 -168 -245 -168c-42 0 -86 5 -115 14v105c31 -7 68 -10 108 -10c71 0 106 18 106 55c0 40 -38 59 -121 59h-66v71l43 106c-272 21 -456 177 -474 409
h182c22 -151 166 -247 371 -247c194 0 337 105 337 248c0 123 -90 201 -289 251l-185 48c-261 66 -374 184 -374 389c0 245 205 411 510 411c279 0 487 -166 502 -399h-181c-25 148 -147 236 -327 236c-192 0 -319 -96 -319 -242c0 -113 79 -178 278 -229z" />
    <glyph glyph-name="S.mini" horiz-adv-x="1305" 
d="M115 377h182c22 -150 169 -247 375 -247c209 0 333 81 333 216c0 113 -63 163 -290 223l-164 43c-279 73 -394 177 -394 357c0 227 198 378 507 378c283 0 490 -163 505 -399h-181c-25 150 -146 236 -330 236c-195 0 -316 -74 -316 -202c0 -94 79 -153 298 -210l142 -37
c294 -77 408 -182 408 -369c0 -250 -199 -400 -535 -400c-307 0 -521 163 -540 411z" />
    <glyph glyph-name="Scarondotaccent.mini" horiz-adv-x="1305" 
d="M115 377h182c22 -150 169 -247 375 -247c209 0 333 81 333 216c0 113 -63 163 -290 223l-164 43c-279 73 -394 177 -394 357c0 227 198 378 507 378c283 0 490 -163 505 -399h-181c-25 150 -146 236 -330 236c-195 0 -316 -74 -316 -202c0 -94 79 -153 298 -210l142 -37
c294 -77 408 -182 408 -369c0 -250 -199 -400 -535 -400c-307 0 -521 163 -540 411zM662 1712c-66 0 -119 53 -119 119s53 119 119 119s119 -53 119 -119s-53 -119 -119 -119zM760 1445h-196l-294 233h222l162 -135h16l162 135h222z" />
    <glyph glyph-name="T" unicode="T" horiz-adv-x="1298" 
d="M739 0h-180v1281h-465v162h1110v-162h-465v-1281z" />
    <glyph glyph-name="Tcircumflexbelow" unicode="&#x1e70;" horiz-adv-x="1298" 
d="M739 0h-180v1281h-465v162h1110v-162h-465v-1281zM567 -139h164l300 -298h-202l-172 177h-16l-172 -177h-202z" />
    <glyph glyph-name="Tdotbelow" unicode="&#x1e6c;" horiz-adv-x="1298" 
d="M739 0h-180v1281h-465v162h1110v-162h-465v-1281zM649 -402c-67 0 -121 54 -121 121s54 121 121 121s121 -54 121 -121s-54 -121 -121 -121z" />
    <glyph glyph-name="Tcommaaccent" unicode="&#x21a;" horiz-adv-x="1298" 
d="M739 0h-180v1281h-465v162h1110v-162h-465v-1281zM652 -518h-167l102 377h182z" />
    <glyph glyph-name="Tdotaccent" unicode="&#x1e6a;" horiz-adv-x="1298" 
d="M739 0h-180v1281h-465v162h1110v-162h-465v-1281zM649 1575c-67 0 -121 54 -121 121s54 121 121 121s121 -54 121 -121s-54 -121 -121 -121z" />
    <glyph glyph-name="Tcedilla" unicode="&#x162;" horiz-adv-x="1298" 
d="M739 22v-22l-51 -132c136 0 215 -60 215 -163c0 -111 -91 -189 -244 -189c-59 0 -105 6 -146 18v108c24 -7 86 -14 122 -14c77 0 119 26 119 73c0 46 -43 65 -149 65h-59v84l61 150h-48v1281h-465v162h1110v-162h-465v-1259z" />
    <glyph glyph-name="Tlinebelow" unicode="&#x1e6e;" horiz-adv-x="1298" 
d="M739 0h-180v1281h-465v162h1110v-162h-465v-1281zM986 -212v-136h-674v136h674z" />
    <glyph glyph-name="Tcaron" unicode="&#x164;" horiz-adv-x="1298" 
d="M739 0h-180v1281h-465v162h1110v-162h-465v-1281zM567 1575l-300 298h202l172 -177h16l172 177h202l-300 -298h-164z" />
    <glyph glyph-name="Tbar" unicode="&#x166;" horiz-adv-x="1298" 
d="M1204 1281h-465v-488h305v-143h-305v-650h-180v650h-305v143h305v488h-465v162h1110v-162z" />
    <glyph glyph-name="Tcommaaccent.mini" horiz-adv-x="1298" 
d="M739 0h-180v1281h-465v162h1110v-162h-465v-1281zM662 -432h-143l79 290h177z" />
    <glyph glyph-name="Tcedilla.mini" horiz-adv-x="1298" 
d="M624 -432c-43 0 -87 5 -115 14v105c29 -7 66 -10 108 -10c71 0 106 18 106 55c0 40 -38 59 -121 59h-66v71l56 138h-33v1281h-465v162h1110v-162h-465v-1281v0l-44 -114c114 -5 174 -56 174 -150c0 -103 -94 -168 -245 -168z" />
    <glyph glyph-name="U" unicode="U" horiz-adv-x="1524" 
d="M369 1443v-935c0 -218 143 -376 393 -376s393 158 393 376v935h180v-947c0 -308 -215 -530 -573 -530s-573 222 -573 530v947h180z" />
    <glyph glyph-name="Ugrave" unicode="&#xd9;" horiz-adv-x="1524" 
d="M369 1443v-935c0 -218 143 -376 393 -376s393 158 393 376v935h180v-947c0 -308 -215 -530 -573 -530s-573 222 -573 530v947h180zM656 1575l-332 298h226l310 -298h-204z" />
    <glyph glyph-name="Udblgrave" unicode="&#x214;" horiz-adv-x="1524" 
d="M369 1443v-935c0 -218 143 -376 393 -376s393 158 393 376v935h180v-947c0 -308 -215 -530 -573 -530s-573 222 -573 530v947h180zM882 1575l-332 298h226l310 -298h-204zM468 1575l-332 298h226l310 -298h-204z" />
    <glyph glyph-name="Uacute" unicode="&#xda;" horiz-adv-x="1524" 
d="M369 1443v-935c0 -218 143 -376 393 -376s393 158 393 376v935h180v-947c0 -308 -215 -530 -573 -530s-573 222 -573 530v947h180zM860 1575h-204l310 298h226z" />
    <glyph glyph-name="Uhungarumlaut" unicode="&#x170;" horiz-adv-x="1524" 
d="M369 1443v-935c0 -218 143 -376 393 -376s393 158 393 376v935h180v-947c0 -308 -215 -530 -573 -530s-573 222 -573 530v947h180zM1016 1575h-204l310 298h226zM602 1575h-204l310 298h226z" />
    <glyph glyph-name="Ucircumflex" unicode="&#xdb;" horiz-adv-x="1524" 
d="M369 1443v-935c0 -218 143 -376 393 -376s393 158 393 376v935h180v-947c0 -308 -215 -530 -573 -530s-573 222 -573 530v947h180zM680 1873h164l300 -298h-202l-172 177h-16l-172 -177h-202z" />
    <glyph glyph-name="Ucaron" unicode="&#x1d3;" horiz-adv-x="1524" 
d="M369 1443v-935c0 -218 143 -376 393 -376s393 158 393 376v935h180v-947c0 -308 -215 -530 -573 -530s-573 222 -573 530v947h180zM680 1575l-300 298h202l172 -177h16l172 177h202l-300 -298h-164z" />
    <glyph glyph-name="Ucircumflexbelow" unicode="&#x1e76;" horiz-adv-x="1524" 
d="M369 1443v-935c0 -218 143 -376 393 -376s393 158 393 376v935h180v-947c0 -308 -215 -530 -573 -530s-573 222 -573 530v947h180zM680 -139h164l300 -298h-202l-172 177h-16l-172 -177h-202z" />
    <glyph glyph-name="Udieresis" unicode="&#xdc;" horiz-adv-x="1524" 
d="M369 1443v-935c0 -218 143 -376 393 -376s393 158 393 376v935h180v-947c0 -308 -215 -530 -573 -530s-573 222 -573 530v947h180zM560 1575c-67 0 -121 54 -121 121s54 121 121 121s121 -54 121 -121s-54 -121 -121 -121zM964 1575c-67 0 -121 54 -121 121
s54 121 121 121s121 -54 121 -121s-54 -121 -121 -121z" />
    <glyph glyph-name="Udieresisgrave" unicode="&#x1db;" horiz-adv-x="1524" 
d="M369 1443v-935c0 -218 143 -376 393 -376s393 158 393 376v935h180v-947c0 -308 -215 -530 -573 -530s-573 222 -573 530v947h180zM868 1873h-176l-281 222h227zM560 1575c-67 0 -121 54 -121 121s54 121 121 121s121 -54 121 -121s-54 -121 -121 -121zM964 1575
c-67 0 -121 54 -121 121s54 121 121 121s121 -54 121 -121s-54 -121 -121 -121z" />
    <glyph glyph-name="Udieresisacute" unicode="&#x1d7;" horiz-adv-x="1524" 
d="M369 1443v-935c0 -218 143 -376 393 -376s393 158 393 376v935h180v-947c0 -308 -215 -530 -573 -530s-573 222 -573 530v947h180zM674 1873l230 222h227l-281 -222h-176zM560 1575c-67 0 -121 54 -121 121s54 121 121 121s121 -54 121 -121s-54 -121 -121 -121z
M964 1575c-67 0 -121 54 -121 121s54 121 121 121s121 -54 121 -121s-54 -121 -121 -121z" />
    <glyph glyph-name="Udieresismacron" unicode="&#x1d5;" horiz-adv-x="1524" 
d="M369 1443v-935c0 -218 143 -376 393 -376s393 158 393 376v935h180v-947c0 -308 -215 -530 -573 -530s-573 222 -573 530v947h180zM560 1809c65 0 117 -52 117 -117s-52 -117 -117 -117s-117 52 -117 117s52 117 117 117zM425 2062h674v-130h-674v130zM964 1809
c65 0 117 -52 117 -117s-52 -117 -117 -117s-117 52 -117 117s52 117 117 117z" />
    <glyph glyph-name="Udieresiscaron" unicode="&#x1d9;" horiz-adv-x="1524" 
d="M369 1443v-935c0 -218 143 -376 393 -376s393 158 393 376v935h180v-947c0 -308 -215 -530 -573 -530s-573 222 -573 530v947h180zM664 1862l-294 233h222l162 -135h16l162 135h222l-294 -233h-196zM560 1809c65 0 117 -52 117 -117s-52 -117 -117 -117s-117 52 -117 117
s52 117 117 117zM964 1809c65 0 117 -52 117 -117s-52 -117 -117 -117s-117 52 -117 117s52 117 117 117z" />
    <glyph glyph-name="Udieresisbelow" unicode="&#x1e72;" horiz-adv-x="1524" 
d="M369 1443v-935c0 -218 143 -376 393 -376s393 158 393 376v935h180v-947c0 -308 -215 -530 -573 -530s-573 222 -573 530v947h180zM560 -432c-67 0 -121 54 -121 121s54 121 121 121s121 -54 121 -121s-54 -121 -121 -121zM964 -432c-67 0 -121 54 -121 121
s54 121 121 121s121 -54 121 -121s-54 -121 -121 -121z" />
    <glyph glyph-name="Utildebelow" unicode="&#x1e74;" horiz-adv-x="1524" 
d="M369 1443v-935c0 -218 143 -376 393 -376s393 158 393 376v935h180v-947c0 -308 -215 -530 -573 -530s-573 222 -573 530v947h180zM907 -419c-160 0 -204 157 -284 157c-70 0 -98 -44 -98 -157h-142c0 182 87 291 232 291c160 0 204 -157 284 -157c70 0 98 44 98 157h142
c0 -182 -87 -291 -232 -291z" />
    <glyph glyph-name="Uhookabove" unicode="&#x1ee6;" horiz-adv-x="1524" 
d="M369 1443v-935c0 -218 143 -376 393 -376s393 158 393 376v935h180v-947c0 -308 -215 -530 -573 -530s-573 222 -573 530v947h180zM587 1780v120c31 13 84 21 131 21c138 0 223 -69 223 -180c0 -91 -75 -179 -182 -214l-73 97c64 19 109 63 109 105s-42 73 -98 73
c-44 0 -84 -8 -110 -22z" />
    <glyph glyph-name="Ubreve" unicode="&#x16c;" horiz-adv-x="1524" 
d="M369 1443v-935c0 -218 143 -376 393 -376s393 158 393 376v935h180v-947c0 -308 -215 -530 -573 -530s-573 222 -573 530v947h180zM398 1873h154c0 -105 80 -173 210 -173s210 68 210 173h154c0 -179 -138 -298 -364 -298s-364 119 -364 298z" />
    <glyph glyph-name="Uinvertedbreve" unicode="&#x216;" horiz-adv-x="1524" 
d="M369 1443v-935c0 -218 143 -376 393 -376s393 158 393 376v935h180v-947c0 -308 -215 -530 -573 -530s-573 222 -573 530v947h180zM398 1575c0 179 138 298 364 298s364 -119 364 -298h-154c0 105 -80 173 -210 173s-210 -68 -210 -173h-154z" />
    <glyph glyph-name="Utildeacute" unicode="&#x1e78;" horiz-adv-x="1524" 
d="M369 1443v-935c0 -218 143 -376 393 -376s393 158 393 376v935h180v-947c0 -308 -215 -530 -573 -530s-573 222 -573 530v947h180zM902 1575c-170 0 -168 128 -276 128c-57 0 -90 -38 -94 -111h-136c0 141 92 241 226 241c170 0 168 -128 276 -128c48 0 89 33 95 111h135
c0 -133 -92 -241 -226 -241zM736 1873l220 222h218l-248 -222h-190z" />
    <glyph glyph-name="Udotbelow" unicode="&#x1ee4;" horiz-adv-x="1524" 
d="M369 1443v-935c0 -218 143 -376 393 -376s393 158 393 376v935h180v-947c0 -308 -215 -530 -573 -530s-573 222 -573 530v947h180zM762 -402c-67 0 -121 54 -121 121s54 121 121 121s121 -54 121 -121s-54 -121 -121 -121z" />
    <glyph glyph-name="Utilde" unicode="&#x168;" horiz-adv-x="1524" 
d="M369 1443v-935c0 -218 143 -376 393 -376s393 158 393 376v935h180v-947c0 -308 -215 -530 -573 -530s-573 222 -573 530v947h180zM907 1580c-160 0 -204 157 -284 157c-70 0 -98 -44 -98 -157h-142c0 182 87 291 232 291c160 0 204 -157 284 -157c70 0 98 44 98 157h142
c0 -182 -87 -291 -232 -291z" />
    <glyph glyph-name="Umacron" unicode="&#x16a;" horiz-adv-x="1524" 
d="M369 1443v-935c0 -218 143 -376 393 -376s393 158 393 376v935h180v-947c0 -308 -215 -530 -573 -530s-573 222 -573 530v947h180zM1099 1756v-136h-674v136h674z" />
    <glyph glyph-name="Umacrondieresis" unicode="&#x1e7a;" horiz-adv-x="1524" 
d="M369 1443v-935c0 -218 143 -376 393 -376s393 158 393 376v935h180v-947c0 -308 -215 -530 -573 -530s-573 222 -573 530v947h180zM1099 1620h-674v130h674v-130zM560 1861c-65 0 -117 52 -117 117s52 117 117 117s117 -52 117 -117s-52 -117 -117 -117zM964 1861
c-65 0 -117 52 -117 117s52 117 117 117s117 -52 117 -117s-52 -117 -117 -117z" />
    <glyph glyph-name="Uring" unicode="&#x16e;" horiz-adv-x="1524" 
d="M369 1443v-935c0 -218 143 -376 393 -376s393 158 393 376v935h180v-947c0 -308 -215 -530 -573 -530s-573 222 -573 530v947h180zM762 1551c-110 0 -199 86 -199 197s89 197 199 197s199 -86 199 -197s-89 -197 -199 -197zM762 1643c61 0 105 45 105 105
c0 61 -44 105 -105 105s-105 -44 -105 -105c0 -60 44 -105 105 -105z" />
    <glyph glyph-name="Uogonek" unicode="&#x172;" horiz-adv-x="1524" 
d="M1023 -432c-148 0 -243 90 -243 204c0 96 63 164 131 208v16c-28 -17 -96 -30 -149 -30c-345 0 -573 210 -573 530v947h180v-935c0 -229 154 -376 393 -376s393 147 393 376v935h180v-947c0 -181 -72 -318 -253 -482c-86 -76 -133 -148 -133 -204c0 -65 55 -98 112 -98
c32 0 54 3 66 6v-134c-23 -8 -56 -16 -104 -16z" />
    <glyph glyph-name="Uhorn" unicode="&#x1af;" horiz-adv-x="1659" 
d="M762 -34c-345 0 -573 210 -573 530v947h180v-935c0 -229 154 -376 393 -376s393 147 393 376v935h182c64 0 91 29 91 88v159h159v-189c0 -124 -84 -186 -202 -186h-50v-819c0 -320 -228 -530 -573 -530z" />
    <glyph glyph-name="Uhorngrave" unicode="&#x1eea;" horiz-adv-x="1659" 
d="M656 1575l-332 298h226l310 -298h-204zM762 -34c-345 0 -573 210 -573 530v947h180v-935c0 -229 154 -376 393 -376s393 147 393 376v935h182c64 0 91 29 91 88v159h159v-189c0 -124 -84 -186 -202 -186h-50v-819c0 -320 -228 -530 -573 -530z" />
    <glyph glyph-name="Uhornacute" unicode="&#x1ee8;" horiz-adv-x="1659" 
d="M860 1575h-204l310 298h226zM762 -34c-345 0 -573 210 -573 530v947h180v-935c0 -229 154 -376 393 -376s393 147 393 376v935h182c64 0 91 29 91 88v159h159v-189c0 -124 -84 -186 -202 -186h-50v-819c0 -320 -228 -530 -573 -530z" />
    <glyph glyph-name="Uhorndotbelow" unicode="&#x1ef0;" horiz-adv-x="1659" 
d="M762 -402c-67 0 -121 54 -121 121s54 121 121 121s121 -54 121 -121s-54 -121 -121 -121zM762 -34c-345 0 -573 210 -573 530v947h180v-935c0 -229 154 -376 393 -376s393 147 393 376v935h182c64 0 91 29 91 88v159h159v-189c0 -124 -84 -186 -202 -186h-50v-819
c0 -320 -228 -530 -573 -530z" />
    <glyph glyph-name="Uhornhookabove" unicode="&#x1eec;" horiz-adv-x="1659" 
d="M587 1780v120c31 13 84 21 131 21c138 0 223 -69 223 -180c0 -91 -75 -179 -182 -214l-73 97c64 19 109 63 109 105s-42 73 -98 73c-44 0 -84 -8 -110 -22zM762 -34c-345 0 -573 210 -573 530v947h180v-935c0 -229 154 -376 393 -376s393 147 393 376v935h182
c64 0 91 29 91 88v159h159v-189c0 -124 -84 -186 -202 -186h-50v-819c0 -320 -228 -530 -573 -530z" />
    <glyph glyph-name="Uhorntilde" unicode="&#x1eee;" horiz-adv-x="1659" 
d="M907 1580c-160 0 -204 157 -284 157c-70 0 -98 -44 -98 -157h-142c0 182 87 291 232 291c160 0 204 -157 284 -157c70 0 98 44 98 157h142c0 -182 -87 -291 -232 -291zM762 -34c-345 0 -573 210 -573 530v947h180v-935c0 -229 154 -376 393 -376s393 147 393 376v935h182
c64 0 91 29 91 88v159h159v-189c0 -124 -84 -186 -202 -186h-50v-819c0 -320 -228 -530 -573 -530z" />
    <glyph glyph-name="Uogonek.mini" horiz-adv-x="1524" 
d="M1023 -432c-148 0 -243 90 -243 204c0 96 63 164 131 208v16c-28 -17 -96 -30 -149 -30c-345 0 -573 210 -573 530v947h180v-935c0 -229 154 -376 393 -376s393 147 393 376v935h180v-947c0 -181 -72 -318 -253 -482c-86 -76 -133 -148 -133 -204c0 -65 55 -98 112 -98
c32 0 54 3 66 6v-134c-23 -8 -56 -16 -104 -16z" />
    <glyph glyph-name="U.mini" horiz-adv-x="1524" 
d="M369 1313v-805c0 -218 143 -376 393 -376s393 158 393 376v805h180v-817c0 -308 -215 -530 -573 -530s-573 222 -573 530v817h180z" />
    <glyph glyph-name="Udieresismacron.mini" horiz-adv-x="1524" 
d="M369 1313v-805c0 -218 143 -376 393 -376s393 158 393 376v805h180v-817c0 -308 -215 -530 -573 -530s-573 222 -573 530v817h180zM425 1802v130h674v-130h-674zM560 1445c-65 0 -117 52 -117 117s52 117 117 117s117 -52 117 -117s-52 -117 -117 -117zM964 1445
c-65 0 -117 52 -117 117s52 117 117 117s117 -52 117 -117s-52 -117 -117 -117z" />
    <glyph glyph-name="Udieresiscaron.mini" horiz-adv-x="1524" 
d="M369 1313v-805c0 -218 143 -376 393 -376s393 158 393 376v805h180v-817c0 -308 -215 -530 -573 -530s-573 222 -573 530v817h180zM560 1445c-65 0 -117 52 -117 117s52 117 117 117s117 -52 117 -117s-52 -117 -117 -117zM964 1445c-65 0 -117 52 -117 117
s52 117 117 117s117 -52 117 -117s-52 -117 -117 -117zM866 1732h-208l-292 218h236l152 -120h16l152 120h236z" />
    <glyph glyph-name="Udieresisacute.mini" horiz-adv-x="1524" 
d="M369 1313v-805c0 -218 143 -376 393 -376s393 158 393 376v805h180v-817c0 -308 -215 -530 -573 -530s-573 222 -573 530v817h180zM560 1445c-67 0 -121 54 -121 121s54 121 121 121s121 -54 121 -121s-54 -121 -121 -121zM964 1445c-67 0 -121 54 -121 121
s54 121 121 121s121 -54 121 -121s-54 -121 -121 -121zM656 1743l190 207h214l-214 -207h-190z" />
    <glyph glyph-name="Udieresisgrave.mini" horiz-adv-x="1524" 
d="M369 1313v-805c0 -218 143 -376 393 -376s393 158 393 376v805h180v-817c0 -308 -215 -530 -573 -530s-573 222 -573 530v817h180zM560 1445c-67 0 -121 54 -121 121s54 121 121 121s121 -54 121 -121s-54 -121 -121 -121zM964 1445c-67 0 -121 54 -121 121
s54 121 121 121s121 -54 121 -121s-54 -121 -121 -121zM868 1743h-190l-214 207h214z" />
    <glyph glyph-name="Utildeacute.mini" horiz-adv-x="1524" 
d="M369 1313v-805c0 -218 143 -376 393 -376s393 158 393 376v805h180v-817c0 -308 -215 -530 -573 -530s-573 222 -573 530v817h180zM736 1743l190 207h214l-214 -207h-190zM902 1445c-170 0 -168 128 -276 128c-57 0 -90 -38 -94 -111h-136c0 141 92 241 226 241
c170 0 168 -128 276 -128c48 0 89 33 95 111h135c0 -133 -92 -241 -226 -241z" />
    <glyph glyph-name="Umacrondieresis.mini" horiz-adv-x="1524" 
d="M369 1313v-805c0 -218 143 -376 393 -376s393 158 393 376v805h180v-817c0 -308 -215 -530 -573 -530s-573 222 -573 530v817h180zM425 1460v130h674v-130h-674zM560 1716c-65 0 -117 52 -117 117s52 117 117 117s117 -52 117 -117s-52 -117 -117 -117zM964 1716
c-65 0 -117 52 -117 117s52 117 117 117s117 -52 117 -117s-52 -117 -117 -117z" />
    <glyph glyph-name="V" unicode="V" horiz-adv-x="1380" 
d="M779 0h-178l-532 1443h189l424 -1210h16l424 1210h189z" />
    <glyph glyph-name="Vtilde" unicode="&#x1e7c;" horiz-adv-x="1380" 
d="M779 0h-178l-532 1443h189l424 -1210h16l424 1210h189zM831 1580c-160 0 -204 157 -284 157c-70 0 -98 -44 -98 -157h-142c0 182 87 291 232 291c160 0 204 -157 284 -157c70 0 98 44 98 157h142c0 -182 -87 -291 -232 -291z" />
    <glyph glyph-name="Vdotbelow" unicode="&#x1e7e;" horiz-adv-x="1380" 
d="M779 0h-178l-532 1443h189l424 -1210h16l424 1210h189zM686 -402c-67 0 -121 54 -121 121s54 121 121 121s121 -54 121 -121s-54 -121 -121 -121z" />
    <glyph glyph-name="W" unicode="W" horiz-adv-x="1982" 
d="M985 1139l-332 -1139h-170l-393 1443h188l287 -1173h12l323 1173h182l323 -1173h12l287 1173h188l-393 -1443h-170l-332 1139h-12z" />
    <glyph glyph-name="Wgrave" unicode="&#x1e80;" horiz-adv-x="1982" 
d="M985 1139l-332 -1139h-170l-393 1443h188l287 -1173h12l323 1173h182l323 -1173h12l287 1173h188l-393 -1443h-170l-332 1139h-12zM885 1575l-332 298h226l310 -298h-204z" />
    <glyph glyph-name="Wacute" unicode="&#x1e82;" horiz-adv-x="1982" 
d="M985 1139l-332 -1139h-170l-393 1443h188l287 -1173h12l323 1173h182l323 -1173h12l287 1173h188l-393 -1443h-170l-332 1139h-12zM1089 1575h-204l310 298h226z" />
    <glyph glyph-name="Wdotaccent" unicode="&#x1e86;" horiz-adv-x="1982" 
d="M985 1139l-332 -1139h-170l-393 1443h188l287 -1173h12l323 1173h182l323 -1173h12l287 1173h188l-393 -1443h-170l-332 1139h-12zM991 1575c-67 0 -121 54 -121 121s54 121 121 121s121 -54 121 -121s-54 -121 -121 -121z" />
    <glyph glyph-name="Wdotbelow" unicode="&#x1e88;" horiz-adv-x="1982" 
d="M985 1139l-332 -1139h-170l-393 1443h188l287 -1173h12l323 1173h182l323 -1173h12l287 1173h188l-393 -1443h-170l-332 1139h-12zM991 -402c-67 0 -121 54 -121 121s54 121 121 121s121 -54 121 -121s-54 -121 -121 -121z" />
    <glyph glyph-name="Wdieresis" unicode="&#x1e84;" horiz-adv-x="1982" 
d="M985 1139l-332 -1139h-170l-393 1443h188l287 -1173h12l323 1173h182l323 -1173h12l287 1173h188l-393 -1443h-170l-332 1139h-12zM789 1575c-67 0 -121 54 -121 121s54 121 121 121s121 -54 121 -121s-54 -121 -121 -121zM1193 1575c-67 0 -121 54 -121 121
s54 121 121 121s121 -54 121 -121s-54 -121 -121 -121z" />
    <glyph glyph-name="Wcircumflex" unicode="&#x174;" horiz-adv-x="1982" 
d="M985 1139l-332 -1139h-170l-393 1443h188l287 -1173h12l323 1173h182l323 -1173h12l287 1173h188l-393 -1443h-170l-332 1139h-12zM909 1873h164l300 -298h-202l-172 177h-16l-172 -177h-202z" />
    <glyph glyph-name="X" unicode="X" horiz-adv-x="1390" 
d="M90 0l494 726v0l-488 717h217l380 -574h16l386 574h205l-500 -725v0l489 -718h-216l-378 569h-16l-385 -569h-204z" />
    <glyph glyph-name="Xdotaccent" unicode="&#x1e8a;" horiz-adv-x="1390" 
d="M90 0l494 726v0l-488 717h217l380 -574h16l386 574h205l-500 -725v0l489 -718h-216l-378 569h-16l-385 -569h-204zM695 1575c-67 0 -121 54 -121 121s54 121 121 121s121 -54 121 -121s-54 -121 -121 -121z" />
    <glyph glyph-name="Xdieresis" unicode="&#x1e8c;" horiz-adv-x="1390" 
d="M90 0l494 726v0l-488 717h217l380 -574h16l386 574h205l-500 -725v0l489 -718h-216l-378 569h-16l-385 -569h-204zM493 1575c-67 0 -121 54 -121 121s54 121 121 121s121 -54 121 -121s-54 -121 -121 -121zM897 1575c-67 0 -121 54 -121 121s54 121 121 121
s121 -54 121 -121s-54 -121 -121 -121z" />
    <glyph glyph-name="Y" unicode="Y" horiz-adv-x="1344" 
d="M762 0h-180v621l-512 822h205l389 -641h16l389 641h205l-512 -822v-621z" />
    <glyph glyph-name="Ygrave" unicode="&#x1ef2;" horiz-adv-x="1344" 
d="M762 0h-180v621l-512 822h205l389 -641h16l389 641h205l-512 -822v-621zM566 1575l-332 298h226l310 -298h-204z" />
    <glyph glyph-name="Yacute" unicode="&#xdd;" horiz-adv-x="1344" 
d="M762 0h-180v621l-512 822h205l389 -641h16l389 641h205l-512 -822v-621zM770 1575h-204l310 298h226z" />
    <glyph glyph-name="Ydotaccent" unicode="&#x1e8e;" horiz-adv-x="1344" 
d="M762 0h-180v621l-512 822h205l389 -641h16l389 641h205l-512 -822v-621zM672 1575c-67 0 -121 54 -121 121s54 121 121 121s121 -54 121 -121s-54 -121 -121 -121z" />
    <glyph glyph-name="Ydotbelow" unicode="&#x1ef4;" horiz-adv-x="1344" 
d="M762 0h-180v621l-512 822h205l389 -641h16l389 641h205l-512 -822v-621zM672 -402c-67 0 -121 54 -121 121s54 121 121 121s121 -54 121 -121s-54 -121 -121 -121z" />
    <glyph glyph-name="Ydieresis" unicode="&#x178;" horiz-adv-x="1344" 
d="M762 0h-180v621l-512 822h205l389 -641h16l389 641h205l-512 -822v-621zM470 1575c-67 0 -121 54 -121 121s54 121 121 121s121 -54 121 -121s-54 -121 -121 -121zM874 1575c-67 0 -121 54 -121 121s54 121 121 121s121 -54 121 -121s-54 -121 -121 -121z" />
    <glyph glyph-name="Ytilde" unicode="&#x1ef8;" horiz-adv-x="1344" 
d="M762 0h-180v621l-512 822h205l389 -641h16l389 641h205l-512 -822v-621zM817 1580c-160 0 -204 157 -284 157c-70 0 -98 -44 -98 -157h-142c0 182 87 291 232 291c160 0 204 -157 284 -157c70 0 98 44 98 157h142c0 -182 -87 -291 -232 -291z" />
    <glyph glyph-name="Ycircumflex" unicode="&#x176;" horiz-adv-x="1344" 
d="M762 0h-180v621l-512 822h205l389 -641h16l389 641h205l-512 -822v-621zM590 1873h164l300 -298h-202l-172 177h-16l-172 -177h-202z" />
    <glyph glyph-name="Ymacron" unicode="&#x232;" horiz-adv-x="1344" 
d="M762 0h-180v621l-512 822h205l389 -641h16l389 641h205l-512 -822v-621zM1009 1756v-136h-674v136h674z" />
    <glyph glyph-name="Yhookabove" unicode="&#x1ef6;" horiz-adv-x="1344" 
d="M762 0h-180v621l-512 822h205l389 -641h16l389 641h205l-512 -822v-621zM497 1780v120c31 13 84 21 131 21c138 0 223 -69 223 -180c0 -91 -75 -179 -182 -214l-73 97c64 19 109 63 109 105s-42 73 -98 73c-44 0 -84 -8 -110 -22z" />
    <glyph glyph-name="Z" unicode="Z" horiz-adv-x="1355" 
d="M144 0v128l817 1137v16h-789v162h1022v-128l-813 -1137v-16h830v-162h-1067z" />
    <glyph glyph-name="Zacute" unicode="&#x179;" horiz-adv-x="1355" 
d="M144 0v128l817 1137v16h-789v162h1022v-128l-813 -1137v-16h830v-162h-1067zM776 1575h-204l310 298h226z" />
    <glyph glyph-name="Zcaron" unicode="&#x17d;" horiz-adv-x="1355" 
d="M144 0v128l817 1137v16h-789v162h1022v-128l-813 -1137v-16h830v-162h-1067zM596 1575l-300 298h202l172 -177h16l172 177h202l-300 -298h-164z" />
    <glyph glyph-name="Zcircumflex" unicode="&#x1e90;" horiz-adv-x="1355" 
d="M144 0v128l817 1137v16h-789v162h1022v-128l-813 -1137v-16h830v-162h-1067zM596 1873h164l300 -298h-202l-172 177h-16l-172 -177h-202z" />
    <glyph glyph-name="Zlinebelow" unicode="&#x1e94;" horiz-adv-x="1355" 
d="M144 0v128l817 1137v16h-789v162h1022v-128l-813 -1137v-16h830v-162h-1067zM1015 -212v-136h-674v136h674z" />
    <glyph glyph-name="Zdotbelow" unicode="&#x1e92;" horiz-adv-x="1355" 
d="M144 0v128l817 1137v16h-789v162h1022v-128l-813 -1137v-16h830v-162h-1067zM678 -402c-67 0 -121 54 -121 121s54 121 121 121s121 -54 121 -121s-54 -121 -121 -121z" />
    <glyph glyph-name="Zdotaccent" unicode="&#x17b;" horiz-adv-x="1355" 
d="M144 0v128l817 1137v16h-789v162h1022v-128l-813 -1137v-16h830v-162h-1067zM678 1575c-67 0 -121 54 -121 121s54 121 121 121s121 -54 121 -121s-54 -121 -121 -121z" />
    <glyph glyph-name="AE" unicode="&#xc6;" horiz-adv-x="1966" 
d="M839 1292l-310 -680h457v680h-147zM986 0v459h-527l-209 -459h-181l651 1443h1104v-162h-658v-473h621v-160h-621v-486h658v-162h-838z" />
    <glyph glyph-name="AEmacron" unicode="&#x1e2;" horiz-adv-x="1966" 
d="M839 1292l-310 -680h457v680h-147zM986 0v459h-527l-209 -459h-181l651 1443h1104v-162h-658v-473h621v-160h-621v-486h658v-162h-838zM1776 1756v-136h-674v136h674z" />
    <glyph glyph-name="AEacute" unicode="&#x1fc;" horiz-adv-x="1966" 
d="M839 1292l-310 -680h457v680h-147zM986 0v459h-527l-209 -459h-181l651 1443h1104v-162h-658v-473h621v-160h-621v-486h658v-162h-838zM1537 1575h-204l310 298h226z" />
    <glyph glyph-name="OE" unicode="&#x152;" horiz-adv-x="2325" 
d="M801 1311c-301 0 -488 -225 -488 -589c0 -366 185 -590 488 -590c290 0 467 224 467 590s-177 589 -467 589zM1289 0v247h-16c-88 -168 -285 -281 -492 -281c-402 0 -653 291 -653 756c0 462 253 755 653 755c203 0 403 -110 492 -271h16v237h894v-162h-732v-463h695
v-160h-695v-496h732v-162h-894z" />
    <glyph glyph-name="Eth" unicode="&#xd0;" horiz-adv-x="1487" 
d="M364 162h303c322 0 509 206 509 558c0 353 -189 561 -509 561h-303v-455h248v-163h-248v-501zM184 1443h495c428 0 681 -267 681 -721c0 -455 -252 -722 -681 -722h-495v663h-158v163h158v617z" />
    <glyph glyph-name="Thorn" unicode="&#xde;" horiz-adv-x="1280" 
d="M184 1443h180v-266h373c220 0 422 -151 422 -415s-204 -417 -424 -417h-371v-345h-180v1443zM364 1017v-512h322c166 0 288 85 288 257s-122 255 -288 255h-322z" />
    <glyph glyph-name="Alphagreek" unicode="&#x391;" horiz-adv-x="1380" 
d="M1122 0l-145 413h-574l-145 -413h-189l532 1443h178l532 -1443h-189zM682 1210l-226 -644h468l-226 644h-16z" />
    <glyph glyph-name="Betagreek" unicode="&#x392;" horiz-adv-x="1346" 
d="M747 0h-563v1443h552c265 0 427 -139 427 -360c0 -150 -110 -286 -249 -311v-16c197 -25 322 -160 322 -351c0 -254 -182 -405 -489 -405zM364 1284v-463h288c218 0 329 78 329 231c0 147 -104 232 -283 232h-334zM364 159h356c217 0 331 88 331 255s-118 252 -348 252
h-339v-507z" />
    <glyph glyph-name="Gammagreek" unicode="&#x393;" horiz-adv-x="1152" 
d="M364 0h-180v1443h856v-162h-676v-1281z" />
    <glyph glyph-name="Deltagreek" unicode="&#x2206;" horiz-adv-x="1394" 
d="M1291 0h-1188v127l505 1316h178l505 -1316v-127zM307 178v-16h780v16l-382 1042h-16z" />
    <glyph glyph-name="Deltagreek" unicode="&#x394;" horiz-adv-x="1394" 
d="M1291 0h-1188v127l505 1316h178l505 -1316v-127zM307 178v-16h780v16l-382 1042h-16z" />
    <glyph glyph-name="Epsilongreek" unicode="&#x395;" horiz-adv-x="1220" 
d="M1078 162v-162h-894v1443h894v-162h-714v-463h677v-160h-677v-496h714z" />
    <glyph glyph-name="Zetagreek" unicode="&#x396;" horiz-adv-x="1355" 
d="M144 0v128l817 1137v16h-789v162h1022v-128l-813 -1137v-16h830v-162h-1067z" />
    <glyph glyph-name="Etagreek" unicode="&#x397;" horiz-adv-x="1520" 
d="M1336 0h-180v657h-792v-657h-180v1443h180v-624h792v624h180v-1443z" />
    <glyph glyph-name="Thetagreek" unicode="&#x398;" horiz-adv-x="1599" 
d="M1102 638h-605v162h605v-162zM801 1477c410 0 670 -272 670 -755c0 -481 -258 -756 -670 -756c-414 0 -673 274 -673 756c0 484 265 755 673 755zM801 1311c-294 0 -488 -208 -488 -589c0 -378 188 -590 488 -590c296 0 485 212 485 590c0 381 -190 589 -485 589z" />
    <glyph glyph-name="Iotagreek" unicode="&#x399;" horiz-adv-x="548" 
d="M364 0h-180v1443h180v-1443z" />
    <glyph glyph-name="Iotagreek.1" horiz-adv-x="992" 
d="M862 1289h-276v-1135h276v-154h-276h-180h-276v154h276v1135h-276v154h276h180h276v-154z" />
    <glyph glyph-name="Kappagreek" unicode="&#x39a;" horiz-adv-x="1349" 
d="M364 0h-180v1443h180v-701h16l632 701h226l-577 -623l630 -820h-233l-521 695l-173 -191v-504z" />
    <glyph glyph-name="Lambdagreek" unicode="&#x39b;" horiz-adv-x="1368" 
d="M1096 0l-404 1200h-16l-404 -1200h-189l512 1443h178l512 -1443h-189z" />
    <glyph glyph-name="Mugreek" unicode="&#x39c;" horiz-adv-x="1790" 
d="M1606 0h-168v1102h-12l-455 -1092h-152l-455 1092h-12v-1102h-168v1443h209l494 -1194h16l494 1194h209v-1443z" />
    <glyph glyph-name="Nugreek" unicode="&#x39d;" horiz-adv-x="1520" 
d="M362 0h-178v1443h175l783 -1123h16v1123h178v-1443h-175l-783 1119h-16v-1119z" />
    <glyph glyph-name="Xigreek" unicode="&#x39e;" horiz-adv-x="1343" 
d="M142 1443h1059v-167h-1059v167zM1114 653h-885v165h885v-165zM142 167h1059v-167h-1059v167z" />
    <glyph glyph-name="Omicrongreek" unicode="&#x39f;" horiz-adv-x="1579" 
d="M791 1477c410 0 660 -292 660 -755c0 -461 -248 -756 -660 -756c-414 0 -663 294 -663 756c0 464 255 755 663 755zM791 1311c-294 0 -478 -228 -478 -589c0 -358 178 -590 478 -590c296 0 475 232 475 590c0 361 -180 589 -475 589z" />
    <glyph glyph-name="Pigreek" unicode="&#x3a0;" horiz-adv-x="1500" 
d="M1316 0h-180v1281h-772v-1281h-180v1443h1132v-1443z" />
    <glyph glyph-name="Rhogreek" unicode="&#x3a1;" horiz-adv-x="1301" 
d="M184 1443h545c273 0 462 -192 462 -467c0 -270 -193 -461 -464 -461h-363v-515h-180v1443zM364 1283v-608h318c205 0 324 110 324 301c0 198 -115 307 -324 307h-318z" />
    <glyph glyph-name="Sigmagreek" unicode="&#x3a3;" horiz-adv-x="1335" 
d="M372 178v-16h819v-162h-1047v132l419 593l-402 566v152h1012v-162h-779v-16l357 -511v-32z" />
    <glyph glyph-name="Taugreek" unicode="&#x3a4;" horiz-adv-x="1298" 
d="M739 0h-180v1281h-465v162h1110v-162h-465v-1281z" />
    <glyph glyph-name="Upsilongreek" unicode="&#x3a5;" horiz-adv-x="1344" 
d="M762 0h-180v621l-512 822h205l389 -641h16l389 641h205l-512 -822v-621z" />
    <glyph glyph-name="Phigreek" unicode="&#x3a6;" horiz-adv-x="1716" 
d="M1414 718c0 298 -189 462 -466 472v-944c277 10 466 174 466 472zM302 718c0 -298 189 -462 466 -472v944c-277 -10 -466 -174 -466 -472zM948 -58h-180v143c-388 18 -650 255 -650 633s262 615 650 633v146h180v-146c388 -18 650 -255 650 -633s-262 -615 -650 -633
v-143z" />
    <glyph glyph-name="Chigreek" unicode="&#x3a7;" horiz-adv-x="1390" 
d="M90 0l494 726v0l-488 717h217l380 -574h16l386 574h205l-500 -725v0l489 -718h-216l-378 569h-16l-385 -569h-204z" />
    <glyph glyph-name="Psigreek" unicode="&#x3a8;" horiz-adv-x="1676" 
d="M928 0h-180v339c-347 1 -579 224 -579 559v545h180v-539c0 -250 143 -393 399 -399v938h180v-938c256 6 399 149 399 399v539h180v-545c0 -335 -232 -559 -579 -559v-339z" />
    <glyph glyph-name="Omegagreek" unicode="&#x2126;" horiz-adv-x="1590" 
d="M1270 793c0 321 -180 518 -475 518s-475 -197 -475 -518c0 -258 108 -444 341 -589v-204h-526v162h311v16c-196 125 -311 354 -311 619c0 406 266 680 660 680s660 -274 660 -680c0 -265 -115 -494 -311 -619v-16h311v-162h-526v204c233 145 341 331 341 589z" />
    <glyph glyph-name="Omegagreek" unicode="&#x3a9;" horiz-adv-x="1590" 
d="M1270 793c0 321 -180 518 -475 518s-475 -197 -475 -518c0 -258 108 -444 341 -589v-204h-526v162h311v16c-196 125 -311 354 -311 619c0 406 266 680 660 680s660 -274 660 -680c0 -265 -115 -494 -311 -619v-16h311v-162h-526v204c233 145 341 331 341 589z" />
    <glyph glyph-name="Alphatonosgreek" unicode="&#x386;" horiz-adv-x="1380" 
d="M1122 0l-145 413h-574l-145 -413h-189l532 1443h178l532 -1443h-189zM682 1210l-226 -644h468l-226 644h-16zM92 1105l88 338h206l-135 -338h-159z" />
    <glyph glyph-name="Epsilontonosgreek" unicode="&#x388;" horiz-adv-x="1618" 
d="M1476 162v-162h-894v1443h894v-162h-714v-463h677v-160h-677v-496h714zM104 1105l88 338h206l-135 -338h-159z" />
    <glyph glyph-name="Etatonosgreek" unicode="&#x389;" horiz-adv-x="1918" 
d="M1734 0h-180v657h-792v-657h-180v1443h180v-624h792v624h180v-1443zM104 1105l88 338h206l-135 -338h-159z" />
    <glyph glyph-name="Iotatonosgreek" unicode="&#x38a;" horiz-adv-x="946" 
d="M762 0h-180v1443h180v-1443zM104 1105l88 338h206l-135 -338h-159z" />
    <glyph glyph-name="Iotadieresisgreek" unicode="&#x3aa;" horiz-adv-x="548" 
d="M364 0h-180v1443h180v-1443zM72 1575c-67 0 -121 54 -121 121s54 121 121 121s121 -54 121 -121s-54 -121 -121 -121zM476 1575c-67 0 -121 54 -121 121s54 121 121 121s121 -54 121 -121s-54 -121 -121 -121z" />
    <glyph glyph-name="Iotatonosgreek.1" horiz-adv-x="1412" 
d="M104 1105l88 338h206l-135 -338h-159zM1282 1289h-276v-1135h276v-154h-276h-180h-276v154h276v1135h-276v154h276h180h276v-154z" />
    <glyph glyph-name="Iotadieresisgreek.1" horiz-adv-x="1012" 
d="M708 1575c-67 0 -121 54 -121 121s54 121 121 121s121 -54 121 -121s-54 -121 -121 -121zM304 1575c-67 0 -121 54 -121 121s54 121 121 121s121 -54 121 -121s-54 -121 -121 -121zM872 1289h-276v-1135h276v-154h-276h-180h-276v154h276v1135h-276v154h276h180h276v-154
z" />
    <glyph glyph-name="Omicrontonosgreek" unicode="&#x38c;" horiz-adv-x="1843" 
d="M1055 1477c410 0 660 -292 660 -755c0 -461 -248 -756 -660 -756c-414 0 -663 294 -663 756c0 464 255 755 663 755zM1055 1311c-294 0 -478 -228 -478 -589c0 -358 178 -590 478 -590c296 0 475 232 475 590c0 361 -180 589 -475 589zM104 1105l88 338h206l-135 -338
h-159z" />
    <glyph glyph-name="Upsilontonosgreek" unicode="&#x38e;" horiz-adv-x="1742" 
d="M1160 0h-180v621l-512 822h205l389 -641h16l389 641h205l-512 -822v-621zM104 1105l88 338h206l-135 -338h-159z" />
    <glyph glyph-name="Upsilondieresisgreek" unicode="&#x3ab;" horiz-adv-x="1344" 
d="M762 0h-180v621l-512 822h205l389 -641h16l389 641h205l-512 -822v-621zM470 1575c-67 0 -121 54 -121 121s54 121 121 121s121 -54 121 -121s-54 -121 -121 -121zM874 1575c-67 0 -121 54 -121 121s54 121 121 121s121 -54 121 -121s-54 -121 -121 -121z" />
    <glyph glyph-name="Omegatonosgreek" unicode="&#x38f;" horiz-adv-x="1859" 
d="M1539 793c0 321 -180 518 -475 518s-475 -197 -475 -518c0 -258 108 -444 341 -589v-204h-526v162h311v16c-196 125 -311 354 -311 619c0 406 266 680 660 680s660 -274 660 -680c0 -265 -115 -494 -311 -619v-16h311v-162h-526v204c233 145 341 331 341 589zM104 1105
l88 338h206l-135 -338h-159z" />
    <glyph glyph-name="Acyrillic" unicode="&#x410;" horiz-adv-x="1400" 
d="M1132 0l-145 413h-574l-145 -413h-189l532 1443h178l532 -1443h-189zM692 1210l-226 -644h468l-226 644h-16z" />
    <glyph glyph-name="uni04D0" unicode="&#x4d0;" horiz-adv-x="1400" 
d="M1132 0l-145 413h-574l-145 -413h-189l532 1443h178l532 -1443h-189zM692 1210l-226 -644h468l-226 644h-16zM356 1873h156c0 -109 80 -180 186 -180c108 0 188 71 188 180h156c0 -186 -138 -298 -344 -298s-342 112 -342 298z" />
    <glyph glyph-name="uni04D2" unicode="&#x4d2;" horiz-adv-x="1400" 
d="M1132 0l-145 413h-574l-145 -413h-189l532 1443h178l532 -1443h-189zM692 1210l-226 -644h468l-226 644h-16zM498 1575c-67 0 -121 54 -121 121s54 121 121 121s121 -54 121 -121s-54 -121 -121 -121zM902 1575c-67 0 -121 54 -121 121s54 121 121 121s121 -54 121 -121
s-54 -121 -121 -121z" />
    <glyph glyph-name="uniF50E" horiz-adv-x="1400" 
d="M1132 0l-145 413h-574l-145 -413h-189l532 1443h178l532 -1443h-189zM692 1210l-226 -644h468l-226 644h-16zM1037 1756v-136h-674v136h674z" />
    <glyph glyph-name="uniF460" horiz-adv-x="1400" 
d="M1132 0l-145 413h-574l-145 -413h-189l532 1443h178l532 -1443h-189zM692 1210l-226 -644h468l-226 644h-16zM798 1575h-204l310 298h226z" />
    <glyph glyph-name="Becyrillic" unicode="&#x411;" horiz-adv-x="1301" 
d="M1181 433c0 -255 -191 -433 -462 -433h-525v1443h843v-162h-663v-413h343c271 0 464 -179 464 -435zM374 162h298c207 0 324 97 324 271c0 175 -118 273 -324 273h-298v-544z" />
    <glyph glyph-name="Vecyrillic" unicode="&#x412;" horiz-adv-x="1366" 
d="M757 0h-563v1443h552c265 0 427 -139 427 -360c0 -150 -110 -286 -249 -311v-16c197 -25 322 -160 322 -351c0 -254 -182 -405 -489 -405zM374 1284v-463h288c218 0 329 78 329 231c0 147 -104 232 -283 232h-334zM374 159h356c217 0 331 88 331 255s-118 252 -348 252
h-339v-507z" />
    <glyph glyph-name="Gecyrillic" unicode="&#x413;" horiz-adv-x="1160" 
d="M375 0h-181v1443h856v-164h-675v-1279z" />
    <glyph glyph-name="Gjecyrillic" unicode="&#x403;" horiz-adv-x="1160" 
d="M375 0h-181v1443h856v-164h-675v-1279zM681 1575h-204l310 298h226z" />
    <glyph glyph-name="Geupturncyrillic" unicode="&#x490;" horiz-adv-x="1160" 
d="M375 1279v-1279h-181v1443h689v285h167v-449h-675z" />
    <glyph glyph-name="uni04F6" unicode="&#x4f6;" horiz-adv-x="1160" 
d="M1050 1279h-675v-1117h180v-447h-167v285h-13h-181v162v1281h856v-164z" />
    <glyph glyph-name="uni0492" unicode="&#x492;" horiz-adv-x="1208" 
d="M1098 1279h-675v-504h490v-140h-490v-635h-181v635h-163v140h163v668h856v-164z" />
    <glyph glyph-name="uniF53C" horiz-adv-x="1180" 
d="M374 0h-180v1443h876v-162h-696v-496h639v-160h-639v-625z" />
    <glyph glyph-name="uni04FA" unicode="&#x4fa;" horiz-adv-x="1214" 
d="M1104 1279h-675v-504h490v-140h-490v-338v-297v-53c0 -227 -104 -322 -339 -322h-30v152h26c122 0 162 48 162 167v56v297v338h-163v140h163v668h856v-164z" />
    <glyph glyph-name="Decyrillic" unicode="&#x414;" horiz-adv-x="1500" 
d="M471 531c-10 -163 -30 -272 -101 -357v-12h700v1119h-552zM207 0v-285h-167v447h107c105 56 144 184 155 373l55 908h893v-1281h180v-447h-167v285h-1056z" />
    <glyph glyph-name="uni0414.BUL" horiz-adv-x="1490" 
d="M737 1196l-365 -1034h746l-365 1034h-16zM1307 162h143v-447h-167v285h-1076v-285h-167v447h143l473 1281h178z" />
    <glyph glyph-name="Iecyrillic" unicode="&#x415;" horiz-adv-x="1240" 
d="M1088 162v-162h-894v1443h894v-162h-714v-463h677v-160h-677v-496h714z" />
    <glyph glyph-name="Iocyrillic" unicode="&#x401;" horiz-adv-x="1240" 
d="M1088 162v-162h-894v1443h894v-162h-714v-463h677v-160h-677v-496h714zM439 1575c-67 0 -121 54 -121 121s54 121 121 121s121 -54 121 -121s-54 -121 -121 -121zM843 1575c-67 0 -121 54 -121 121s54 121 121 121s121 -54 121 -121s-54 -121 -121 -121z" />
    <glyph glyph-name="uni04D6" unicode="&#x4d6;" horiz-adv-x="1240" 
d="M1088 162v-162h-894v1443h894v-162h-714v-463h677v-160h-677v-496h714zM298 1873h156c0 -109 80 -180 186 -180c108 0 188 71 188 180h156c0 -186 -138 -298 -344 -298s-342 112 -342 298z" />
    <glyph glyph-name="uniF510" horiz-adv-x="1240" 
d="M1088 162v-162h-894v1443h894v-162h-714v-463h677v-160h-677v-496h714zM978 1756v-136h-674v136h674z" />
    <glyph glyph-name="uniF512" horiz-adv-x="1240" 
d="M1088 162v-162h-894v1443h894v-162h-714v-463h677v-160h-677v-496h714zM429 1809c65 0 117 -52 117 -117s-52 -117 -117 -117s-117 52 -117 117s52 117 117 117zM294 2062h674v-130h-674v130zM833 1809c65 0 117 -52 117 -117s-52 -117 -117 -117s-117 52 -117 117
s52 117 117 117z" />
    <glyph glyph-name="uni0400" unicode="&#x400;" horiz-adv-x="1240" 
d="M1088 162v-162h-894v1443h894v-162h-714v-463h677v-160h-677v-496h714zM535 1575l-332 298h226l310 -298h-204z" />
    <glyph glyph-name="uniF461" horiz-adv-x="1240" 
d="M1088 162v-162h-894v1443h894v-162h-714v-463h677v-160h-677v-496h714zM739 1575h-204l310 298h226z" />
    <glyph glyph-name="uniF469" horiz-adv-x="1250" 
d="M1093 162v-162h-894v1443h894v-162h-714v-463h677v-160h-677v-496h714zM315 1581c-67 0 -121 54 -121 121s54 121 121 121s121 -54 121 -121s-54 -121 -121 -121zM977 1581c-67 0 -121 54 -121 121s54 121 121 121s121 -54 121 -121s-54 -121 -121 -121zM541 1581l37 338
h196l-84 -338h-149z" />
    <glyph glyph-name="uniF514" horiz-adv-x="1240" 
d="M1088 162v-162h-894v1443h894v-162h-714v-463h677v-160h-677v-496h714zM278 2205h154c0 -105 80 -173 210 -173s210 68 210 173h154c0 -179 -138 -298 -364 -298s-364 119 -364 298zM278 1575c0 179 138 298 364 298s364 -119 364 -298h-154c0 105 -80 173 -210 173
s-210 -68 -210 -173h-154z" />
    </font>
</defs>
</svg>
